<?xml version="1.0" standalone="no"?>
<!DOCTYPE svg PUBLIC "-//W3C//DTD SVG 1.1//EN" "http://www.w3.org/Graphics/SVG/1.1/DTD/svg11.dtd" >
<svg xmlns="http://www.w3.org/2000/svg">
<metadata></metadata>
<defs>
<font id="scgregular" horiz-adv-x="0" >
<font-face units-per-em="2048" ascent="1638" descent="-410" />
<missing-glyph horiz-adv-x="540" />
<glyph unicode="&#xe2f;&#xe2f;" horiz-adv-x="1392" d="M88 985q0 57 25 135h143q-23 -58 -23 -125q0 -65 38.5 -113t117.5 -48q67 0 123 24t96 67t67 89.5t50 105.5h156v-1284h-156v1096q-127 -225 -356 -225q-137 0 -209 69.5t-72 208.5zM1083 -164v1284h154v-1284h-154z" />
<glyph unicode="&#xe4f;&#x22;" horiz-adv-x="1187" d="M123 508q0 99 38 185.5t102 146.5t150.5 94.5t180.5 34.5t180.5 -34.5t150.5 -94.5t102 -146.5t38 -185.5t-38 -186t-102 -148t-150.5 -96t-180.5 -35t-180.5 35t-150.5 96t-102 148t-38 186zM203 508q0 -164 114.5 -278.5t276.5 -114.5q163 0 277 114.5t114 278.5 q0 160 -114.5 274.5t-276.5 114.5q-161 0 -276 -114.5t-115 -274.5zM319 508q0 111 80 191.5t195 80.5q114 0 194 -80.5t80 -191.5q0 -116 -79.5 -196.5t-194.5 -80.5t-195 80.5t-80 196.5zM360 1509h146l-19 -419h-108zM408 506q0 -78 54 -132.5t132 -54.5t132 54.5 t54 132.5t-54 132t-132 54t-132 -54t-54 -132zM684 1509h145l-18 -419h-109z" />
<glyph unicode="&#xe24;&#xe32;" horiz-adv-x="2043" d="M156 272v791q262 82 514 82q192 0 305 -70q246 70 430 70q243 0 365 -114.5t122 -356.5v-1131h-155v1121q0 191 -78.5 270.5t-265.5 79.5q-119 0 -306 -49q70 -110 70 -291v-1131h-156v1121q0 191 -78.5 270.5t-265.5 79.5q-184 0 -346 -45v-680q0 -109 38 -147t132 -38 q75 0 154 33v-127q-79 -33 -180 -33q-299 0 -299 295z" />
<glyph unicode="&#xe26;&#xe32;" horiz-adv-x="2043" d="M37 -8v129q53 -17 98 -17q115 0 115 150v809q262 82 481 82q168 0 277 -62q216 62 397 62q243 0 365 -114.5t122 -356.5v-1131h-155v1121q0 191 -78.5 270.5t-265.5 79.5q-135 0 -271 -39q68 -109 68 -283v-1149h-156v1139q0 180 -70.5 256t-242.5 76q-153 0 -315 -45 v-719q0 -273 -238 -273q-73 0 -131 15z" />
<glyph unicode="fi" horiz-adv-x="1181" d="M47 805v117h172v43q0 192 130 290.5t366 98.5q176 0 315 -54v-124q-150 53 -301 53q-178 0 -268 -63.5t-90 -202.5v-41h295v-117h-291v-805h-156v805h-172zM874 0v922h156v-922h-156z" />
<glyph unicode="fl" horiz-adv-x="1181" d="M47 805v117h172v43q0 189 123 289t350 100q190 0 338 -37v-1317h-151v1217q-100 14 -177 14q-167 0 -249 -64.5t-82 -203.5v-41h295v-117h-291v-805h-156v805h-172z" />
<glyph unicode=" "  horiz-adv-x="540" />
<glyph unicode="&#x09;" horiz-adv-x="540" />
<glyph unicode="&#xa0;" horiz-adv-x="540" />
<glyph unicode="!" horiz-adv-x="499" d="M131 98q0 50 34.5 83.5t84.5 33.5t84.5 -33.5t34.5 -83.5q0 -49 -34.5 -81.5t-84.5 -32.5t-84.5 32.5t-34.5 81.5zM164 1249h172l-25 -809h-121z" />
<glyph unicode="&#x22;" horiz-adv-x="704" d="M127 1331h149l-18 -491h-113zM428 1331h150l-19 -491h-113z" />
<glyph unicode="#" horiz-adv-x="1253" d="M76 367v118h227l74 357h-199v121h223l78 364h125l-78 -364h324l78 364h125l-78 -364h203v-121h-228l-73 -357h200v-118h-227l-76 -367h-125l76 367h-324l-75 -367h-125l78 367h-203zM428 485h324l73 357h-323z" />
<glyph unicode="$" horiz-adv-x="1253" d="M147 115l60 116q172 -122 409 -122q46 0 88 4.5t86.5 18t76.5 34.5t52.5 57.5t20.5 83.5q0 31 -10 58t-33.5 50.5t-45.5 41t-62 37t-66.5 31.5t-75.5 32t-74 31q-154 67 -210 100q-184 116 -187 273q0 148 106.5 225.5t295.5 85.5v182h112v-184q198 -12 348 -115 l-59 -113q-154 101 -346 101q-147 0 -223 -42.5t-76 -137.5q0 -27 8.5 -51t28.5 -45t38 -36t54 -33.5t58 -29t67.5 -30.5t66.5 -29q18 -8 60.5 -25.5t66.5 -28.5t65 -30.5t66 -36t58 -40t53 -48t39 -54.5t28 -65t9 -74q0 -149 -113.5 -230.5t-296.5 -94.5v-187h-112v185 q-120 4 -241.5 45t-189.5 90z" />
<glyph unicode="%" horiz-adv-x="1417" d="M96 973q0 133 75 216t208 83t208 -83t75 -216t-75 -216t-208 -83t-208 83t-75 216zM188 0l918 1249h123l-916 -1249h-125zM201 973q0 -99 46.5 -155t131.5 -56t131.5 56t46.5 155t-46.5 155t-131.5 56t-131.5 -56t-46.5 -155zM756 276q0 133 74.5 216t207.5 83t208 -83 t75 -216t-75 -216t-208 -83t-207.5 83t-74.5 216zM860 276q0 -99 46 -154.5t132 -55.5t132.5 55.5t46.5 154.5t-46.5 155t-132.5 56q-85 0 -131.5 -56t-46.5 -155z" />
<glyph unicode="&#x26;" horiz-adv-x="1316" d="M92 324q0 127 72 217.5t209 160.5q-73 69 -118.5 139t-45.5 156q0 122 95.5 199.5t262.5 77.5q175 0 267 -88.5t92 -243.5h-142q0 217 -215 217q-99 0 -157 -42t-58 -116q0 -34 11 -66t35.5 -65t43.5 -54t54 -56l450 -438q88 146 88 364h150q0 -267 -139 -461l233 -225 h-178l-141 137q-170 -162 -418 -162q-128 0 -228.5 38.5t-161.5 119t-61 191.5zM246 328q0 -64 28.5 -111t75 -71t94.5 -35t97 -11q202 0 325 123l-399 393q-108 -50 -164.5 -119t-56.5 -169z" />
<glyph unicode="'" horiz-adv-x="419" d="M135 1331h150l-19 -491h-112z" />
<glyph unicode="(" horiz-adv-x="573" d="M119 537q0 269 116.5 483t296.5 326v-89q-123 -106 -193.5 -294t-70.5 -426t70.5 -425.5t193.5 -293.5v-90q-180 112 -296.5 326t-116.5 483z" />
<glyph unicode=")" horiz-adv-x="573" d="M41 -182q123 106 193.5 293.5t70.5 425.5t-70.5 426t-193.5 294v89q181 -112 297.5 -326t116.5 -483t-116.5 -483t-297.5 -326v90z" />
<glyph unicode="*" horiz-adv-x="892" d="M111 821l264 148l-264 149l57 84l238 -166l-17 279h117l-19 -279l238 166l57 -84l-262 -149l262 -148l-57 -88l-238 170l19 -280h-117l17 280l-238 -170z" />
<glyph unicode="+" horiz-adv-x="1069" d="M82 571v125h383v402h139v-402h383v-125h-383v-401h-139v401h-383z" />
<glyph unicode="," horiz-adv-x="466" d="M113 100q0 50 32.5 82.5t87.5 32.5q63 0 94 -37.5t31 -87.5q0 -98 -50 -184.5t-120 -147.5l-73 27q102 116 102 201q-41 2 -72.5 33.5t-31.5 80.5z" />
<glyph unicode="-" horiz-adv-x="667" d="M72 557v133h524v-133h-524z" />
<glyph unicode="." horiz-adv-x="462" d="M113 98q0 51 34 84t84 33t84.5 -34t34.5 -83q0 -50 -34.5 -82t-84.5 -32t-84 32.5t-34 81.5z" />
<glyph unicode="/" horiz-adv-x="954" d="M27 -82l759 1413h142l-760 -1413h-141z" />
<glyph unicode="0" horiz-adv-x="1253" d="M109 625q0 311 138 480t380 169t380 -169t138 -480t-138 -480.5t-380 -169.5t-380 169.5t-138 480.5zM264 625q0 -250 90.5 -385.5t272.5 -135.5t272 135.5t90 385.5t-90 385t-272 135t-272.5 -135t-90.5 -385z" />
<glyph unicode="1" horiz-adv-x="741" d="M63 948v129q221 -8 347 172h137v-1249h-154v1087q-109 -149 -330 -139z" />
<glyph unicode="2" horiz-adv-x="1050" d="M90 0v117q346 219 510 401t164 359q0 126 -78 197t-233 71q-169 0 -336 -78v139q145 68 346 68q119 0 209.5 -32t143.5 -88t78.5 -125t25.5 -150q0 -87 -34 -174.5t-89 -161.5t-137 -149.5t-166 -137t-187 -125.5h633v-131h-850z" />
<glyph unicode="3" horiz-adv-x="1017" d="M74 45v135q171 -76 366 -76q308 0 308 246q0 57 -22 100t-59.5 69.5t-93 42t-115.5 21t-134 3.5v125q389 -11 389 235q0 199 -279 199q-83 0 -177.5 -22t-160.5 -54v133q65 30 160 51t199 21q118 0 208 -31.5t146.5 -105.5t56.5 -183q0 -122 -63 -195.5t-170 -105.5v-4 q118 -18 194 -97.5t76 -209.5q0 -185 -121.5 -276t-324.5 -91q-239 0 -383 70z" />
<glyph unicode="4" horiz-adv-x="1105" d="M41 260v115l655 874h160v-862h193v-127h-193v-260h-151v260h-664zM211 387h494v670z" />
<glyph unicode="5" horiz-adv-x="1075" d="M94 37v135q73 -28 169.5 -48t176.5 -20q191 0 279 66t88 213q0 136 -92.5 198t-276.5 62q-156 0 -315 -31l27 637h741v-131h-604l-17 -364q125 16 215 16q233 0 355.5 -103.5t122.5 -281.5q0 -201 -131 -305.5t-379 -104.5q-94 0 -193.5 18t-165.5 44z" />
<glyph unicode="6" horiz-adv-x="1142" d="M106 608q0 162 41 290t115 209.5t172.5 124t216.5 42.5q123 0 258 -57v-130q-127 60 -243 60q-190 0 -297 -133t-111 -379q59 76 159.5 125t219.5 49q109 0 191.5 -32.5t130 -89.5t71 -127.5t23.5 -153.5q0 -198 -123 -314.5t-322 -116.5q-232 0 -367 159t-135 474z M256 492q12 -176 103.5 -283t246.5 -107q59 0 111 16.5t95 51t68 94t25 137.5q0 58 -14.5 106.5t-46 90.5t-89 66t-137.5 24q-111 0 -204.5 -52t-157.5 -144z" />
<glyph unicode="7" horiz-adv-x="970" d="M49 1118v131h846v-112l-489 -1137h-160l481 1118h-678z" />
<glyph unicode="8" horiz-adv-x="1126" d="M100 301q0 258 332 328v4q-109 23 -178.5 74t-96 111t-26.5 134q0 143 115.5 232.5t308.5 89.5q205 0 318.5 -85.5t113.5 -234.5q0 -113 -75.5 -192.5t-206.5 -124.5v-4q155 -29 237 -109t82 -202q0 -163 -121 -255t-346 -92q-206 0 -331.5 86.5t-125.5 239.5zM250 315 q0 -112 82.5 -166.5t230.5 -54.5q43 0 85 7t84.5 24t74 42.5t51 66t19.5 90.5q0 56 -23.5 98t-70.5 70t-104 46t-136 31q-132 -31 -212.5 -96t-80.5 -158zM276 952q0 -111 79 -170.5t239 -85.5q55 21 93 41t76 50.5t57.5 72t19.5 94.5q0 90 -75 146.5t-208 56.5 q-130 0 -205.5 -57.5t-75.5 -147.5z" />
<glyph unicode="9" horiz-adv-x="1142" d="M90 842q0 200 123 316t322 116q231 0 366 -159.5t135 -473.5q0 -162 -41 -290t-114.5 -209.5t-172 -124t-216.5 -42.5q-134 0 -256 58v129q110 -62 241 -62q190 0 297 133.5t111 378.5q-60 -75 -159.5 -123.5t-219.5 -48.5q-109 0 -191.5 32.5t-130 89.5t-71 127 t-23.5 153zM238 848q0 -60 14.5 -109t46 -90.5t89 -64.5t136.5 -23q112 0 206.5 52t156.5 145q-12 175 -103.5 282t-246.5 107q-59 0 -111 -16.5t-95 -51t-68 -94t-25 -137.5z" />
<glyph unicode=":" horiz-adv-x="540" d="M152 98q0 51 34 84t84 33t84.5 -34t34.5 -83q0 -50 -34.5 -82t-84.5 -32t-84 32.5t-34 81.5zM152 854q0 50 34 82.5t84 32.5t84.5 -33t34.5 -82q0 -50 -34.5 -82.5t-84.5 -32.5t-84 32.5t-34 82.5z" />
<glyph unicode=";" horiz-adv-x="540" d="M147 100q0 50 33 82.5t88 32.5q63 0 94 -37.5t31 -87.5q0 -98 -50 -184.5t-120 -147.5l-73 27q102 116 102 201q-41 2 -73 33.5t-32 80.5zM154 854q0 50 34 82.5t84 32.5t84.5 -33t34.5 -82q0 -50 -34.5 -82.5t-84.5 -32.5t-84 32.5t-34 82.5z" />
<glyph unicode="&#x3c;" horiz-adv-x="1069" d="M61 643v115l885 434v-127l-753 -365l753 -364v-127z" />
<glyph unicode="=" horiz-adv-x="1069" d="M106 391v121h857v-121h-857zM106 739v119h857v-119h-857z" />
<glyph unicode="&#x3e;" horiz-adv-x="1069" d="M123 209v127l751 364l-751 365v127l885 -434v-115z" />
<glyph unicode="?" horiz-adv-x="897" d="M80 1075v123q140 76 348 76q104 0 182 -32.5t126 -105.5t48 -180q0 -51 -13.5 -102t-41.5 -99.5t-55 -87.5t-71 -85.5t-71 -72.5t-73 -69h-146q318 283 318 504q0 205 -225 205q-174 0 -326 -74zM256 98q0 50 35.5 83.5t85.5 33.5t84.5 -34t34.5 -83q0 -50 -34.5 -82 t-84.5 -32t-85.5 32.5t-35.5 81.5z" />
<glyph unicode="@" horiz-adv-x="1529" d="M98 631q0 113 26.5 217t84 197.5t140.5 162t204.5 108.5t267.5 40q144 0 259.5 -46.5t189 -126.5t112.5 -183.5t39 -221.5q0 -130 -44 -243.5t-125.5 -183.5t-180.5 -70q-72 0 -109.5 36t-39.5 95q-39 -59 -105 -95t-153 -36q-125 0 -199 82.5t-74 228.5q0 86 23.5 164.5 t68.5 142.5t119.5 102.5t167.5 38.5q85 0 143.5 -41.5t77.5 -97.5l31 121h119l-105 -524q-4 -30 -6.5 -58.5t15.5 -49.5t59 -21q93 0 162 120.5t69 294.5q0 74 -17.5 144t-57.5 135.5t-98.5 114t-146.5 77.5t-196 29q-145 0 -260 -45.5t-183.5 -114.5t-113.5 -160.5 t-61.5 -175t-16.5 -165.5q0 -91 17.5 -170t62.5 -155.5t114.5 -130.5t182 -87t256.5 -33q191 0 324.5 65.5t199.5 166.5h91q-189 -304 -623 -304q-333 0 -522 169.5t-189 486.5zM528 598q0 -105 47 -162t119 -57q81 0 133.5 39.5t87.5 111.5l50 258q-14 66 -58.5 111 t-126.5 45q-78 0 -136.5 -49t-87 -126.5t-28.5 -170.5z" />
<glyph unicode="A" horiz-adv-x="1327" d="M33 0l545 1249h172l544 -1249h-164l-133 307h-667l-133 -307h-164zM385 436h557l-172 408l-104 268h-4l-105 -268z" />
<glyph unicode="B" horiz-adv-x="1218" d="M156 0v1249h516q385 0 385 -313q0 -181 -152 -279v-4q223 -68 223 -311q0 -77 -24 -136t-65 -97.5t-100 -63.5t-125 -35t-144 -10h-514zM313 127h351q51 0 90.5 4.5t81.5 18t70 37t45.5 64.5t17.5 97q0 59 -17.5 101.5t-43.5 65t-68 35.5t-77 16t-85 3h-365v-442z M313 696h367q34 0 96 -4q121 96 121 232q0 103 -51.5 150.5t-183.5 47.5h-349v-426z" />
<glyph unicode="C" horiz-adv-x="1263" d="M104 625q0 199 88.5 348t240.5 225t345 76q213 0 365 -74v-149q-153 90 -359 90q-238 0 -378 -135t-140 -381q0 -245 142.5 -380.5t375.5 -135.5q203 0 379 104v-154q-160 -84 -391 -84q-190 0 -340 74.5t-239 223.5t-89 352z" />
<glyph unicode="D" horiz-adv-x="1337" d="M156 0v1249h452q297 0 461 -157.5t164 -456.5q0 -314 -164 -474.5t-469 -160.5h-444zM313 133h283q242 0 359.5 120.5t117.5 381.5q0 252 -115.5 366.5t-353.5 114.5h-291v-983z" />
<glyph unicode="E" horiz-adv-x="1054" d="M156 0v1249h792v-133h-635v-414h580v-131h-580v-438h635v-133h-792z" />
<glyph unicode="F" horiz-adv-x="1026" d="M156 0v1249h792v-133h-635v-475h594v-131h-594v-510h-157z" />
<glyph unicode="G" horiz-adv-x="1370" d="M104 618q0 153 53.5 277.5t148 207t223.5 127t280 44.5q229 0 389 -78v-147q-168 92 -385 92q-247 0 -397 -134.5t-150 -383.5q0 -245 143 -378.5t379 -133.5q160 0 295 51v461h156v-549q-196 -99 -459 -99q-192 0 -344 74.5t-242 222t-90 346.5z" />
<glyph unicode="H" horiz-adv-x="1363" d="M156 0v1249h159v-547h734v547h159v-1249h-159v569h-734v-569h-159z" />
<glyph unicode="I" horiz-adv-x="479" d="M160 0v1249h159v-1249h-159z" />
<glyph unicode="J" horiz-adv-x="735" d="M57 4v133q72 -26 162 -26q52 0 87 10.5t63 37t41.5 76.5t13.5 125v889h160v-899q0 -196 -85.5 -283t-260.5 -87q-97 0 -181 24z" />
<glyph unicode="K" horiz-adv-x="1105" d="M156 0v1249h155v-559l555 559h181l-572 -577l590 -672h-186l-568 647v-647h-155z" />
<glyph unicode="L" horiz-adv-x="972" d="M156 0v1249h157v-1116h602v-133h-759z" />
<glyph unicode="M" horiz-adv-x="1671" d="M113 0l123 1249h182l325 -823l91 -283h4l90 283l325 823h183l123 -1249h-158l-62 707l-18 360h-4l-119 -340l-287 -727h-151l-287 727l-119 340h-4l-18 -360l-62 -707h-157z" />
<glyph unicode="N" horiz-adv-x="1376" d="M156 0v1249h163l490 -669q176 -236 264 -383h4q-12 99 -12 348v704h156v-1249h-164l-490 670q-176 236 -264 383h-4q12 -99 12 -348v-705h-155z" />
<glyph unicode="O" horiz-adv-x="1540" d="M104 625q0 150 52 273.5t142.5 205t211.5 126t260 44.5t260 -44.5t211.5 -126t142.5 -205t52 -273.5t-52 -274t-142.5 -205.5t-211.5 -126t-260 -44.5t-260 44.5t-211.5 126t-142.5 205.5t-52 274zM266 625q0 -247 137 -381.5t367 -134.5t367 134.5t137 381.5 q0 246 -137.5 381t-366.5 135t-366.5 -135t-137.5 -381z" />
<glyph unicode="P" horiz-adv-x="1169" d="M156 0v1249h458q469 0 469 -391q0 -393 -469 -393h-301v-465h-157zM313 596h301q157 0 235.5 61.5t78.5 200.5q0 138 -78 199t-236 61h-301v-522z" />
<glyph unicode="Q" horiz-adv-x="1540" d="M104 625q0 150 52 273.5t142.5 205t211.5 126t260 44.5q140 0 261.5 -44.5t211.5 -126t141.5 -205t51.5 -273.5q0 -259 -149 -427t-386 -206q112 -179 356 -182q80 0 134 16v-143q-70 -11 -144 -11q-166 2 -283 74.5t-202 230.5q-138 2 -257.5 47t-209 126t-140.5 203.5 t-51 271.5zM266 625q0 -245 137 -379.5t367 -134.5q229 0 365.5 134t136.5 380q0 247 -136.5 381.5t-365.5 134.5q-230 0 -367 -134.5t-137 -381.5z" />
<glyph unicode="R" horiz-adv-x="1202" d="M156 0v1249h450q471 0 471 -346q0 -131 -69.5 -210.5t-184.5 -104.5v-4q144 -43 197 -211l113 -373h-164l-107 346q-27 94 -85 139t-181 45h-283v-530h-157zM313 662h287q164 0 243 54t79 183q0 124 -77.5 171.5t-244.5 47.5h-287v-456z" />
<glyph unicode="S" horiz-adv-x="1058" d="M94 68v135q191 -99 402 -99q305 0 305 203q0 39 -18 74t-37 56.5t-69 51t-74 40.5t-92 41q-9 4 -14 6.5t-12.5 5.5t-13.5 6q-45 19 -72 31.5t-70 35.5t-69.5 42.5t-58 49.5t-49.5 60.5t-30.5 70.5t-12.5 85q0 157 114.5 234t313.5 77q185 0 340 -64v-135q-172 70 -330 70 q-140 0 -210.5 -42.5t-70.5 -137.5q0 -44 18.5 -79.5t68 -69t81 -50t110.5 -52.5q23 -11 34 -16q145 -67 192 -96q167 -102 188 -248q3 -23 3 -47q0 -164 -126 -248t-329 -84q-127 0 -234 26.5t-178 66.5z" />
<glyph unicode="T" horiz-adv-x="1142" d="M51 1116v133h1041v-133l-441 2v-1118h-159v1118z" />
<glyph unicode="U" horiz-adv-x="1417" d="M152 535v714h159v-700q0 -231 96 -334.5t302 -103.5t302.5 103.5t96.5 334.5v700h158v-714q0 -307 -148 -437q-134 -123 -409 -123q-274 0 -408 123q-149 131 -149 437z" />
<glyph unicode="V" horiz-adv-x="1269" d="M37 1249h166l323 -792l107 -316h4l106 316l324 792h166l-516 -1249h-164z" />
<glyph unicode="W" horiz-adv-x="1953" d="M45 1249h164l256 -774l80 -303h4l86 303l264 774h156l264 -774l86 -303h4l80 303l256 774h164l-424 -1249h-150l-291 854l-65 242h-4l-66 -242l-291 -854h-149z" />
<glyph unicode="X" horiz-adv-x="1298" d="M41 0l518 641l-489 608h178l401 -504l402 504h178l-492 -608l520 -641h-178l-430 539l-430 -539h-178z" />
<glyph unicode="Y" horiz-adv-x="1249" d="M41 1249h166l264 -409l150 -248h8l149 248l264 409h166l-503 -766v-483h-160v483z" />
<glyph unicode="Z" horiz-adv-x="1146" d="M92 0v117l744 1005l-717 -4v131h895v-116l-744 -1004l779 2v-131h-957z" />
<glyph unicode="[" horiz-adv-x="581" d="M193 -279v1635h327v-119h-182v-1395h182v-121h-327z" />
<glyph unicode="\" horiz-adv-x="954" d="M27 1331h141l760 -1413h-142z" />
<glyph unicode="]" horiz-adv-x="581" d="M61 -158h183v1395h-183v119h328v-1635h-328v121z" />
<glyph unicode="^" horiz-adv-x="1060" d="M92 516l375 733h127l375 -733h-140l-299 596l-299 -596h-139z" />
<glyph unicode="_" horiz-adv-x="737" d="M0 -125h737v-82h-737v82z" />
<glyph unicode="`" horiz-adv-x="667" d="M135 1331h180l164 -282h-108z" />
<glyph unicode="a" horiz-adv-x="1060" d="M90 266q0 150 110.5 228.5t288.5 78.5q133 0 277 -41v74q0 223 -262 223q-171 0 -330 -81v126q162 72 346 72q87 0 157 -18.5t125.5 -59.5t85.5 -111.5t30 -168.5v-588h-125l-17 158h-4q-43 -76 -132.5 -128.5t-213.5 -52.5q-156 0 -246 75t-90 214zM236 272 q0 -89 57.5 -133.5t159.5 -44.5q219 0 313 189v147q-148 37 -258 37q-272 0 -272 -195z" />
<glyph unicode="b" horiz-adv-x="1155" d="M152 0v1331h155v-555h4q136 170 344 170q193 0 295.5 -127.5t102.5 -347.5q0 -243 -111.5 -369.5t-290.5 -126.5q-118 0 -209 50.5t-143 132.5h-4l-16 -158h-127zM307 281q46 -78 131.5 -130.5t188.5 -52.5q118 0 194 93t76 278q0 160 -68 257t-211 97q-182 0 -311 -176 v-366z" />
<glyph unicode="c" horiz-adv-x="1005" d="M98 463q0 208 140 345.5t364 137.5q174 0 301 -69v-129q-129 79 -289 79q-163 0 -260.5 -101.5t-97.5 -262.5q0 -162 99 -265.5t261 -103.5q159 0 295 80v-127q-123 -72 -305 -72q-225 0 -366.5 137.5t-141.5 350.5z" />
<glyph unicode="d" horiz-adv-x="1155" d="M102 465q0 218 115.5 349.5t314.5 131.5q190 0 314 -147h4v532h154v-1331h-125l-17 158h-4q-49 -81 -132 -132t-194 -51q-91 0 -168 29.5t-136 87.5t-92.5 153.5t-33.5 219.5zM258 465q0 -182 85 -274.5t212 -92.5q173 0 295 185v387q-114 151 -295 151 q-145 0 -221 -99.5t-76 -256.5z" />
<glyph unicode="e" horiz-adv-x="1095" d="M98 465q0 214 126.5 347.5t350.5 133.5q203 0 317 -115t114 -319q0 -36 -15 -98h-745q8 -149 106 -235.5t269 -86.5q150 0 325 96v-131q-158 -82 -338 -82q-244 0 -377 135.5t-133 354.5zM246 518h622q-1 159 -79 236t-214 77q-144 0 -230.5 -86t-98.5 -227z" />
<glyph unicode="f" horiz-adv-x="743" d="M47 805v117h172v92q0 170 85.5 256t246.5 86q98 0 172 -29v-123q-75 27 -148 27q-108 0 -156 -49.5t-48 -173.5v-86h315v-117h-311v-805h-156v805h-172z" />
<glyph unicode="g" horiz-adv-x="1150" d="M102 467q0 217 114.5 348t315.5 131q107 0 189 -49.5t129 -120.5h4l14 146h136v-936q0 -221 -125 -322.5t-347 -101.5q-207 0 -362 76v135q173 -90 358 -90q159 0 241.5 66.5t82.5 232.5q0 107 2 170h-4q-46 -78 -129 -127.5t-193 -49.5q-70 0 -133 18t-117 57.5 t-93 96.5t-61 139t-22 181zM258 467q0 -183 83.5 -275t211.5 -92q180 0 295 183v368q-118 172 -295 172q-146 0 -220.5 -99t-74.5 -257z" />
<glyph unicode="h" horiz-adv-x="1183" d="M152 0v1331h155v-559q174 174 385 174q164 0 256 -92.5t92 -271.5v-582h-155v563q0 132 -57.5 194t-170.5 62q-109 0 -191.5 -44.5t-158.5 -125.5v-649h-155z" />
<glyph unicode="i" horiz-adv-x="458" d="M117 1188q0 49 28 76.5t84 27.5t84.5 -27.5t28.5 -76.5q0 -46 -29 -74.5t-84 -28.5t-83.5 28.5t-28.5 74.5zM152 0v922h155v-922h-155z" />
<glyph unicode="j" horiz-adv-x="479" d="M-68 -330q33 -6 99 -6q78 0 109.5 35.5t31.5 122.5v1100h154v-1008q0 -48 -1 -78t-6 -74t-14.5 -71.5t-28 -59t-44.5 -49t-65.5 -29.5t-90.5 -12q-80 0 -144 21v108zM135 1188q0 49 28.5 76.5t84.5 27.5t84 -27.5t28 -76.5q0 -46 -28.5 -74.5t-83.5 -28.5t-84 28.5 t-29 74.5z" />
<glyph unicode="k" horiz-adv-x="987" d="M152 0v1331h155v-817l430 408h181l-447 -416l479 -506h-182l-461 481v-481h-155z" />
<glyph unicode="l" horiz-adv-x="454" d="M152 0v1331h151v-1331h-151z" />
<glyph unicode="m" horiz-adv-x="1746" d="M147 0v922h132l16 -158h2q60 80 148.5 131t197.5 51q222 0 287 -194q58 80 157.5 137t204.5 57q154 0 233 -89.5t79 -266.5v-590h-154v580q0 126 -43 182.5t-145 56.5q-167 0 -312 -170q0 -8 1 -25t1 -26v-598h-153v580q0 125 -43.5 182t-145.5 57q-167 0 -307 -168v-651 h-156z" />
<glyph unicode="n" horiz-adv-x="1175" d="M147 0v922h132l16 -158h4q170 182 389 182q163 0 253.5 -92t90.5 -272v-582h-153v563q0 133 -56 194.5t-168 61.5q-108 0 -191 -45.5t-161 -128.5v-645h-156z" />
<glyph unicode="o" horiz-adv-x="1200" d="M98 463q0 208 138 345.5t364 137.5t364 -137.5t138 -345.5q0 -136 -60.5 -246.5t-176 -176t-265.5 -65.5t-265.5 65.5t-176 176t-60.5 246.5zM256 463q0 -161 95 -265t249 -104t249 104t95 265t-95 262.5t-249 101.5t-249 -101.5t-95 -262.5z" />
<glyph unicode="p" horiz-adv-x="1150" d="M147 -440v1362h136l16 -154h4q67 87 157.5 132.5t194.5 45.5q95 0 171.5 -40t124 -107t73 -150.5t25.5 -175.5q0 -244 -110.5 -371t-285.5 -127q-231 0 -352 175h-4q3 -25 4 -50.5t1 -60.5t1 -55v-424h-156zM303 281q46 -78 131.5 -130.5t188.5 -52.5q118 0 194 94 t76 279q0 160 -68 256t-211 96q-183 0 -311 -180v-362z" />
<glyph unicode="q" horiz-adv-x="1153" d="M102 467q0 216 115.5 347.5t314.5 131.5q195 0 324 -166h4l12 142h134v-1362h-156v413q0 119 6 174h-4q-46 -75 -128.5 -123.5t-186.5 -48.5q-91 0 -168 29.5t-137.5 88t-95 154.5t-34.5 220zM258 467q0 -183 85.5 -277t213.5 -94q178 0 293 183v376q-125 166 -295 166 q-145 0 -221 -98.5t-76 -255.5z" />
<glyph unicode="r" horiz-adv-x="774" d="M147 0v922h127l23 -226h4q53 104 140 174t204 70q53 0 84 -10v-152q-45 10 -88 10q-111 0 -196 -64t-142 -161v-563h-156z" />
<glyph unicode="s" horiz-adv-x="864" d="M86 33v125q155 -64 299 -64q242 0 242 131q0 32 -10 55.5t-26 40.5t-49.5 33.5t-64.5 28t-88 31.5q-2 1 -3.5 1.5t-4 1t-4.5 1.5q-43 17 -62 24.5t-56.5 25t-55.5 30.5t-44 35.5t-38 45.5t-21.5 54.5t-9.5 68.5q0 116 88 180t262 64q157 0 273 -57v-121q-124 61 -252 61 q-225 0 -225 -122q0 -35 15 -61t44 -45t64 -34t83 -33q5 -1 8 -2t7 -3t8 -3q39 -13 63.5 -22t60.5 -25t59 -31t49.5 -38.5t41.5 -48.5t25 -59t10 -73q0 -126 -100.5 -190t-267.5 -64q-93 0 -179.5 16.5t-140.5 41.5z" />
<glyph unicode="t" horiz-adv-x="804" d="M47 805v117h174l41 290h109v-290h356v-117h-356v-492q0 -119 42 -167t138 -48q110 0 184 39v-123q-80 -39 -207 -39q-165 0 -237 78t-72 248v504h-172z" />
<glyph unicode="u" horiz-adv-x="1144" d="M143 324v598h154v-578q0 -127 55 -184.5t164 -57.5q186 0 328 177v643h153v-922h-129l-16 158h-4q-151 -183 -361 -183q-164 0 -254 87t-90 262z" />
<glyph unicode="v" horiz-adv-x="999" d="M41 922h160l194 -496l103 -295h4l102 295l195 496h159l-383 -922h-151z" />
<glyph unicode="w" horiz-adv-x="1531" d="M49 922h152l182 -566l55 -217h4l60 217l192 566h144l192 -566l60 -217h4l55 217l182 566h152l-320 -922h-145l-193 575q-20 61 -57 211h-4q-37 -150 -57 -211l-193 -575h-145z" />
<glyph unicode="x" horiz-adv-x="1028" d="M35 0l393 475l-369 447h172l283 -355l283 355h172l-371 -447l395 -475h-174l-305 381l-305 -381h-174z" />
<glyph unicode="y" horiz-adv-x="1026" d="M39 922h154l219 -523l104 -262h4l109 293l196 492h160l-485 -1137q-27 -65 -50.5 -106.5t-56.5 -76t-75 -50t-99 -15.5q-68 0 -153 35v125q4 -2 18 -8.5t20.5 -9.5t21 -8.5t25.5 -8t26.5 -4.5t31.5 -2q58 0 93 36t67 118l75 190z" />
<glyph unicode="z" horiz-adv-x="942" d="M78 0v106l569 695l-543 -2v123h725v-107l-571 -694l598 2v-123h-778z" />
<glyph unicode="{" horiz-adv-x="581" d="M78 494v98q71 5 109 49.5t38 144.5v340q0 106 57.5 169t159.5 63q49 0 95 -17v-106q-43 12 -74 12q-56 0 -78.5 -30.5t-22.5 -118.5v-322q0 -99 -39 -152.5t-112 -80.5q73 -27 112 -81t39 -153v-321q0 -88 22.5 -119t78.5 -31q31 0 74 12v-106q-43 -16 -95 -16 q-102 0 -159.5 63t-57.5 168v340q0 100 -38 145t-109 50z" />
<glyph unicode="|" horiz-adv-x="495" d="M180 -440v1771h135v-1771h-135z" />
<glyph unicode="}" horiz-adv-x="581" d="M45 -150q44 -12 74 -12q56 0 78 31t22 119v321q0 99 39.5 153t112.5 81q-73 27 -112.5 80.5t-39.5 152.5v322q0 88 -22 118.5t-78 30.5q-30 0 -74 -12v106q46 17 94 17q102 0 159.5 -63t57.5 -169v-340q0 -100 38.5 -144.5t109.5 -49.5v-98q-71 -5 -109.5 -50t-38.5 -145 v-340q0 -105 -57.5 -168t-159.5 -63q-51 0 -94 16v106z" />
<glyph unicode="~" horiz-adv-x="942" d="M100 512v145q32 27 55.5 43t65 32t84.5 16q48 0 95 -18.5t79 -41t75.5 -41t84.5 -18.5q100 0 203 106v-145q-112 -92 -205 -92q-48 0 -95 19t-79 42.5t-75 42.5t-83 19q-56 0 -100 -25.5t-105 -83.5z" />
<glyph horiz-adv-x="921" />
<glyph unicode="&#xa1;" horiz-adv-x="499" d="M131 823q0 50 34.5 82.5t84.5 32.5t84.5 -32.5t34.5 -82.5t-34.5 -82t-84.5 -32t-84.5 32t-34.5 82zM164 -328l26 809h121l25 -809h-172z" />
<glyph unicode="&#xa2;" horiz-adv-x="1253" d="M201 463q0 196 130 330t353 151v182h111v-180q153 -8 278 -74v-122q-129 79 -313 79q-188 0 -295 -101.5t-107 -264.5t108.5 -266t295.5 -103q188 0 319 80v-123q-115 -66 -286 -74v-182h-111v185q-224 17 -353.5 150t-129.5 333z" />
<glyph unicode="&#xa3;" horiz-adv-x="1253" d="M180 0v121q103 68 139.5 137.5t36.5 171.5v234h-176v100h176v113q0 187 120.5 291t322.5 104q72 0 142 -13.5t114 -33.5v-127q-96 47 -234 47q-146 0 -228.5 -69.5t-82.5 -201.5v-110h360v-100h-360v-238q0 -183 -150 -295h736v-131h-916z" />
<glyph unicode="&#xa4;" horiz-adv-x="1146" d="M121 256l129 129q-82 109 -82 244q0 132 80 241l-127 127l84 82l127 -127q109 82 241 82q133 0 242 -82l127 127l84 -82l-127 -127q80 -109 80 -241q0 -135 -82 -244l129 -129l-84 -82l-127 129q-116 -80 -242 -80q-125 0 -241 80l-127 -129zM279 629q0 -124 85 -212.5 t209 -88.5t209.5 88.5t85.5 212.5t-85.5 212.5t-209.5 88.5t-209 -88.5t-85 -212.5z" />
<glyph unicode="&#xa5;" horiz-adv-x="1253" d="M72 1249h164l387 -620h8l387 620h164l-412 -614h254v-100h-317v-125h317v-101h-317v-309h-160v309h-318v101h318v125h-318v100h252z" />
<glyph unicode="&#xa6;" horiz-adv-x="524" d="M193 285h139v-725h-139v725zM193 606v725h139v-725h-139z" />
<glyph unicode="&#xa7;" horiz-adv-x="1253" d="M164 465q0 104 65.5 194.5t180.5 151.5q-142 105 -142 256q0 91 56 156t145 95t199 30q210 0 313 -43v-142q-148 58 -305 58q-116 0 -190 -40.5t-74 -115.5q0 -32 14 -60.5t37 -50.5t57.5 -43.5t69 -39t78.5 -37.5q13 -6 20 -9q50 -22 74.5 -33t74.5 -37t77.5 -45.5 t65 -52t57 -63.5t34 -73t14.5 -87q0 -105 -72.5 -196t-176.5 -160q145 -106 145 -254q0 -90 -62 -155.5t-156 -95.5t-204 -30q-187 0 -297 45v142q141 -60 283 -60q123 0 207 42t84 114q0 54 -37 98t-96.5 75.5t-131 61.5t-143 65.5t-131 78.5t-96.5 109.5t-37 150.5z M307 469q0 -31 11 -59.5t25.5 -50t43.5 -44.5t51 -37.5t62 -34.5t62.5 -30t66.5 -29q3 -1 4.5 -2t4.5 -2t5 -2l76 -35q106 80 146 122q77 82 77 161q0 42 -19.5 79.5t-47.5 64t-73.5 53t-83.5 43.5t-92 40q-15 6 -22 9l-74 33q-104 -50 -163.5 -120.5t-59.5 -158.5z" />
<glyph unicode="&#xa8;" horiz-adv-x="667" d="M0 1188q0 46 27 73t79 27t78.5 -27t26.5 -73q0 -45 -26.5 -71.5t-78.5 -26.5t-79 26.5t-27 71.5zM453 1188q0 46 27 73t79 27t79.5 -27t27.5 -73q0 -44 -27.5 -71t-79.5 -27t-79 26.5t-27 71.5z" />
<glyph unicode="&#xa9;" horiz-adv-x="1499" d="M102 621q0 178 84.5 323t233 228t330.5 83q136 0 256.5 -49t206 -133t135 -201.5t49.5 -250.5t-49.5 -251t-135 -202t-206 -133t-256.5 -49t-256.5 49t-206.5 133t-135.5 202t-49.5 251zM193 621q0 -242 156 -397.5t401 -155.5q244 0 401.5 155.5t157.5 397.5 q0 241 -156.5 398t-402.5 157q-161 0 -288.5 -72t-198 -198.5t-70.5 -284.5zM371 621q0 168 114.5 278.5t296.5 110.5q137 0 240 -56v-108q-113 67 -234 67q-132 0 -208 -80.5t-76 -211.5q0 -130 79 -213.5t208 -83.5q125 0 237 67v-106q-94 -58 -246 -58q-183 0 -297 111 t-114 283z" />
<glyph unicode="&#xaa;" horiz-adv-x="819" d="M72 772q0 113 82 172.5t215 59.5q114 0 198 -25v41q0 154 -182 154q-134 0 -252 -56v103q102 51 260 51q139 0 223 -64.5t84 -203.5v-431h-114l-13 103h-4q-87 -119 -243 -119q-119 0 -186.5 56t-67.5 159zM201 778q0 -58 41 -89.5t106 -31.5q144 0 223 134v96 q-110 28 -180 28q-93 0 -141.5 -35t-48.5 -102z" />
<glyph unicode="&#xab;" horiz-adv-x="937" d="M49 555l285 434h149l-284 -432l284 -430h-149zM418 555l282 434h152l-287 -432l287 -430h-152z" />
<glyph unicode="&#xac;" horiz-adv-x="1105" d="M123 772v125h856v-541h-135v416h-721z" />
<glyph unicode="&#xad;" horiz-adv-x="667" d="M72 557v133h524v-133h-524z" />
<glyph unicode="&#xae;" horiz-adv-x="1499" d="M102 621q0 178 84.5 323t233 228t330.5 83q136 0 256.5 -49t206 -133t135 -201.5t49.5 -250.5t-49.5 -251t-135 -202t-206 -133t-256.5 -49t-256.5 49t-206.5 133t-135.5 202t-49.5 251zM193 621q0 -242 156 -397.5t401 -155.5q244 0 401.5 155.5t157.5 397.5 q0 241 -156.5 398t-402.5 157q-161 0 -288.5 -72t-198 -198.5t-70.5 -284.5zM485 256v745h281q135 0 204.5 -53.5t69.5 -152.5q0 -74 -40 -120t-103 -67v-2q46 -17 68.5 -43.5t40.5 -81.5l71 -225h-127l-63 209q-13 38 -24.5 56t-39 30t-75.5 12h-142v-307h-121zM606 662h82 q37 0 55 0.5t47.5 2.5t44 7t33.5 14.5t28 23.5t15.5 34.5t6.5 48.5q0 75 -45 94.5t-187 19.5h-80v-245z" />
<glyph unicode="&#xaf;" horiz-adv-x="667" d="M49 1102v112h569v-112h-569z" />
<glyph unicode="&#xb0;" horiz-adv-x="659" d="M78 1116q0 103 71 170.5t181 67.5t181 -67.5t71 -170.5q0 -105 -71 -173.5t-181 -68.5t-181 68.5t-71 173.5zM176 1114q0 -66 42.5 -108.5t111.5 -42.5q68 0 110.5 42.5t42.5 108.5q0 68 -42 111t-111 43t-111.5 -43t-42.5 -111z" />
<glyph unicode="&#xb1;" horiz-adv-x="1069" d="M82 0v106h905v-106h-905zM82 592v125h383v401h139v-401h383v-125h-383v-404h-139v404h-383z" />
<glyph unicode="&#xb2;" horiz-adv-x="759" d="M90 588v88q208 119 313 227.5t105 212.5q0 68 -47 106t-139 38q-99 0 -213 -50v97q108 45 221 45q150 0 221.5 -66.5t71.5 -169.5q0 -216 -357 -432h371v-96h-547z" />
<glyph unicode="&#xb3;" horiz-adv-x="737" d="M84 618v101q107 -49 233 -49q197 0 197 135q0 139 -268 129v84q122 -2 184 27t62 104q0 108 -173 108q-51 0 -115 -13.5t-106 -33.5v95q38 19 103 33t127 14q124 0 198 -48t74 -147q0 -128 -131 -176v-2q71 -14 114.5 -62t43.5 -118q0 -114 -79 -169t-216 -55 q-153 0 -248 43z" />
<glyph unicode="&#xb4;" horiz-adv-x="667" d="M188 1049l164 282h180l-235 -282h-109z" />
<glyph unicode="&#xb5;" horiz-adv-x="1146" d="M147 -440v1362h156v-643q134 -177 328 -177q108 0 162.5 57.5t54.5 184.5v578h156v-598q0 -174 -90.5 -261.5t-254.5 -87.5q-220 0 -356 179h-4q4 -110 4 -170v-424h-156z" />
<glyph unicode="&#xb6;" horiz-adv-x="1132" d="M74 895q0 182 133 309t325 127h426v-1771h-122v1632h-177v-1632h-122v897h-5q-191 0 -324.5 128.5t-133.5 309.5z" />
<glyph unicode="&#xb7;" horiz-adv-x="471" d="M115 596q0 51 33.5 84t87.5 33t87 -33t33 -84q0 -52 -33.5 -85.5t-86.5 -33.5q-54 0 -87.5 33.5t-33.5 85.5z" />
<glyph unicode="&#xb8;" horiz-adv-x="667" d="M223 -293q70 -18 121 -18q117 0 117 73q0 84 -189 88l33 164l80 -8q0 -4 -8 -96q90 -5 146.5 -42.5t56.5 -117.5q0 -58 -35.5 -96t-84 -52t-106.5 -14q-61 0 -131 17v102z" />
<glyph unicode="&#xb9;" horiz-adv-x="534" d="M47 1124v103q143 -8 223 110h99v-749h-115v616q-62 -83 -207 -80z" />
<glyph unicode="&#xba;" horiz-adv-x="866" d="M63 915q0 153 101.5 255t269.5 102q167 0 268 -102t101 -255q0 -155 -101 -256.5t-268 -101.5q-168 0 -269.5 101.5t-101.5 256.5zM201 915q0 -116 64 -188t169 -72q104 0 167 72t63 188q0 114 -63.5 186.5t-166.5 72.5q-105 0 -169 -72.5t-64 -186.5z" />
<glyph unicode="&#xbb;" horiz-adv-x="937" d="M86 127l285 430l-285 432h150l284 -434l-284 -428h-150zM455 127l286 430l-286 432h149l285 -434l-285 -428h-149z" />
<glyph unicode="&#xbc;" horiz-adv-x="1554" d="M129 1036v103q143 -8 223 110h99v-749h-115v616q-62 -83 -207 -80zM262 0l938 1249h121l-932 -1249h-127zM842 152v73l415 525h107v-510h123v-88h-123v-152h-113v152h-409zM967 240h284v368z" />
<glyph unicode="&#xbd;" horiz-adv-x="1554" d="M129 1036v103q143 -8 223 110h99v-749h-115v616q-62 -83 -207 -80zM201 0l938 1249h121l-932 -1249h-127zM903 0v88q208 119 313 227.5t105 212.5q0 68 -47 106t-139 38q-101 0 -213 -49v96q108 45 221 45q150 0 221.5 -66.5t71.5 -169.5q0 -216 -357 -432h371v-96h-547z " />
<glyph unicode="&#xbe;" horiz-adv-x="1554" d="M84 528v101q114 -49 235 -49q195 0 195 135q0 140 -266 129v86q120 -5 182 24t62 107q0 55 -41.5 81.5t-131.5 26.5q-49 0 -112.5 -14.5t-106.5 -34.5v97q38 18 102 31.5t128 13.5q122 0 197 -48t75 -147q0 -122 -133 -176v-2q73 -14 115.5 -61.5t42.5 -118.5 q0 -114 -78 -169t-215 -55q-147 0 -250 43zM303 0l938 1249h121l-932 -1249h-127zM842 152v73l415 525h107v-510h123v-88h-123v-152h-113v152h-409zM967 240h284v368z" />
<glyph unicode="&#xbf;" horiz-adv-x="882" d="M111 -33q0 74 29.5 148.5t84 143.5t101.5 117t112 105h144q-318 -283 -318 -504q0 -202 225 -202q180 0 326 71v-122q-152 -74 -348 -74q-160 0 -258 79.5t-98 237.5zM399 823q0 50 34.5 82.5t84.5 32.5t85.5 -32.5t35.5 -82.5t-35 -82t-86 -32q-50 0 -84.5 32.5 t-34.5 81.5z" />
<glyph unicode="&#xc0;" horiz-adv-x="1327" d="M33 0l545 1249h172l544 -1249h-164l-133 307h-667l-133 -307h-164zM369 1659h180l164 -283h-109zM385 436h557l-172 408l-104 268h-4l-105 -268z" />
<glyph unicode="&#xc1;" horiz-adv-x="1327" d="M33 0l545 1249h172l544 -1249h-164l-133 307h-667l-133 -307h-164zM385 436h557l-172 408l-104 268h-4l-105 -268zM573 1376l164 283h181l-236 -283h-109z" />
<glyph unicode="&#xc2;" horiz-adv-x="1327" d="M33 0l545 1249h172l544 -1249h-164l-133 307h-667l-133 -307h-164zM371 1377l235 272h115l236 -272h-117l-176 163l-176 -163h-117zM385 436h557l-172 408l-104 268h-4l-105 -268z" />
<glyph unicode="&#xc3;" horiz-adv-x="1327" d="M33 0l545 1249h172l544 -1249h-164l-133 307h-667l-133 -307h-164zM369 1407q-8 96 31 149.5t124 53.5q48 0 95.5 -27t90 -53.5t78.5 -26.5q40 0 58.5 26.5t13.5 69.5h98q8 -95 -30.5 -148.5t-122.5 -53.5q-48 0 -97 26.5t-93 53t-78 26.5q-40 0 -57.5 -27.5t-12.5 -68.5 h-98zM385 436h557l-172 408l-104 268h-4l-105 -268z" />
<glyph unicode="&#xc4;" horiz-adv-x="1327" d="M33 0l545 1249h172l544 -1249h-164l-133 307h-667l-133 -307h-164zM330 1516q0 46 27 73t79 27t78.5 -27t26.5 -73q0 -45 -26.5 -71.5t-78.5 -26.5t-79 26.5t-27 71.5zM385 436h557l-172 408l-104 268h-4l-105 -268zM783 1516q0 46 27 73t79 27t79.5 -27t27.5 -73 q0 -44 -27.5 -71t-79.5 -27t-79 26.5t-27 71.5z" />
<glyph unicode="&#xc5;" horiz-adv-x="1327" d="M33 0l545 1249h172l544 -1249h-164l-133 307h-667l-133 -307h-164zM385 436h557l-172 408l-104 268h-4l-105 -268zM453 1522q0 81 58 133.5t153 52.5t153 -52.5t58 -133.5q0 -83 -57.5 -135.5t-153.5 -52.5t-153.5 52.5t-57.5 135.5zM551 1522q0 -49 31 -79t82 -30 t81.5 29.5t30.5 79.5q0 47 -30.5 76.5t-81.5 29.5t-82 -29.5t-31 -76.5z" />
<glyph unicode="&#xc6;" horiz-adv-x="1794" d="M37 0l827 1249h824v-133h-623v-414h567v-131h-567v-438h623v-133h-781v303h-504l-198 -303h-168zM485 432h422v645z" />
<glyph unicode="&#xc7;" horiz-adv-x="1263" d="M104 625q0 199 88.5 348t240.5 225t345 76q213 0 365 -74v-149q-153 90 -359 90q-238 0 -378 -135t-140 -381q0 -245 142.5 -380.5t375.5 -135.5q203 0 379 104v-154q-160 -84 -391 -84q-190 0 -340 74.5t-239 223.5t-89 352zM637 -293q70 -18 121 -18q116 0 116 73 q0 84 -188 88l33 164l80 -8q0 -4 -8 -96q90 -5 146 -42.5t56 -117.5q0 -44 -20 -77t-53.5 -50.5t-71.5 -26t-80 -8.5q-61 0 -131 17v102z" />
<glyph unicode="&#xc8;" horiz-adv-x="1054" d="M156 0v1249h792v-133h-635v-414h580v-131h-580v-438h635v-133h-792zM313 1659h180l164 -282h-108z" />
<glyph unicode="&#xc9;" horiz-adv-x="1054" d="M156 0v1249h792v-133h-635v-414h580v-131h-580v-438h635v-133h-792zM354 1376l164 283h180l-235 -283h-109z" />
<glyph unicode="&#xca;" horiz-adv-x="1054" d="M156 0v1249h792v-133h-635v-414h580v-131h-580v-438h635v-133h-792zM233 1376l236 273h115l235 -273h-117l-176 164l-176 -164h-117z" />
<glyph unicode="&#xcb;" horiz-adv-x="1054" d="M156 0v1249h792v-133h-635v-414h580v-131h-580v-438h635v-133h-792zM195 1516q0 46 27 73t79 27t78.5 -27t26.5 -73q0 -45 -26.5 -72t-78.5 -27t-79 27t-27 72zM647 1516q0 46 27.5 73t79.5 27t79 -27t27 -73q0 -45 -27 -72t-79 -27t-79.5 27t-27.5 72z" />
<glyph unicode="&#xcc;" horiz-adv-x="479" d="M-10 1659h180l164 -283h-109zM160 0v1249h159v-1249h-159z" />
<glyph unicode="&#xcd;" horiz-adv-x="479" d="M160 0v1249h159v-1249h-159zM174 1376l164 283h180l-235 -283h-109z" />
<glyph unicode="&#xce;" horiz-adv-x="479" d="M-49 1376l235 273h115l236 -273h-117l-176 164l-176 -164h-117zM160 0v1249h159v-1249h-159z" />
<glyph unicode="&#xcf;" horiz-adv-x="479" d="M-88 1516q0 46 27 73t79 27t78.5 -27t26.5 -73q0 -45 -26.5 -72t-78.5 -27t-79 27t-27 72zM160 0v1249h159v-1249h-159zM365 1516q0 46 27 73t79 27t79.5 -27t27.5 -73q0 -45 -27.5 -72t-79.5 -27t-79 27t-27 72z" />
<glyph unicode="&#xd0;" horiz-adv-x="1337" d="M31 571v115h125v563h452q297 0 461 -157.5t164 -456.5q0 -314 -164 -474.5t-469 -160.5h-444v571h-125zM313 133h283q242 0 359.5 120.5t117.5 381.5q0 252 -115.5 366.5t-353.5 114.5h-291v-430h310v-115h-310v-438z" />
<glyph unicode="&#xd1;" horiz-adv-x="1376" d="M156 0v1249h163l490 -669q176 -236 264 -383h4q-12 99 -12 348v704h156v-1249h-164l-490 670q-176 236 -264 383h-4q12 -99 12 -348v-705h-155zM393 1407q-8 96 31.5 149.5t124.5 53.5q38 0 76.5 -16.5t65 -36.5t60 -36.5t62.5 -16.5q40 0 58 26.5t13 69.5h99 q8 -95 -31 -149t-123 -54q-38 0 -77.5 16.5t-67.5 37t-61.5 37t-61.5 16.5q-40 0 -57.5 -27.5t-12.5 -69.5h-98z" />
<glyph unicode="&#xd2;" horiz-adv-x="1540" d="M104 625q0 150 52 273.5t142.5 205t211.5 126t260 44.5t260 -44.5t211.5 -126t142.5 -205t52 -273.5t-52 -274t-142.5 -205.5t-211.5 -126t-260 -44.5t-260 44.5t-211.5 126t-142.5 205.5t-52 274zM266 625q0 -247 137 -381.5t367 -134.5t367 134.5t137 381.5 q0 246 -137.5 381t-366.5 135t-366.5 -135t-137.5 -381zM536 1659h180l164 -282h-108z" />
<glyph unicode="&#xd3;" horiz-adv-x="1540" d="M104 625q0 150 52 273.5t142.5 205t211.5 126t260 44.5t260 -44.5t211.5 -126t142.5 -205t52 -273.5t-52 -274t-142.5 -205.5t-211.5 -126t-260 -44.5t-260 44.5t-211.5 126t-142.5 205.5t-52 274zM266 625q0 -247 137 -381.5t367 -134.5t367 134.5t137 381.5 q0 246 -137.5 381t-366.5 135t-366.5 -135t-137.5 -381zM659 1376l164 283h181l-236 -283h-109z" />
<glyph unicode="&#xd4;" horiz-adv-x="1540" d="M104 625q0 150 52 273.5t142.5 205t211.5 126t260 44.5t260 -44.5t211.5 -126t142.5 -205t52 -273.5t-52 -274t-142.5 -205.5t-211.5 -126t-260 -44.5t-260 44.5t-211.5 126t-142.5 205.5t-52 274zM266 625q0 -247 137 -381.5t367 -134.5t367 134.5t137 381.5 q0 246 -137.5 381t-366.5 135t-366.5 -135t-137.5 -381zM477 1376l236 273h114l236 -273h-117l-176 164l-176 -164h-117z" />
<glyph unicode="&#xd5;" horiz-adv-x="1540" d="M104 625q0 150 52 273.5t142.5 205t211.5 126t260 44.5t260 -44.5t211.5 -126t142.5 -205t52 -273.5t-52 -274t-142.5 -205.5t-211.5 -126t-260 -44.5t-260 44.5t-211.5 126t-142.5 205.5t-52 274zM266 625q0 -247 137 -381.5t367 -134.5t367 134.5t137 381.5 q0 246 -137.5 381t-366.5 135t-366.5 -135t-137.5 -381zM475 1407q-8 96 31.5 149.5t124.5 53.5q48 0 95.5 -27t90 -53.5t78.5 -26.5q40 0 58.5 26.5t13.5 69.5h98q8 -95 -31 -148.5t-123 -53.5q-48 0 -97 26.5t-93 53t-78 26.5q-40 0 -57.5 -27.5t-12.5 -68.5h-98z" />
<glyph unicode="&#xd6;" horiz-adv-x="1540" d="M104 625q0 150 52 273.5t142.5 205t211.5 126t260 44.5t260 -44.5t211.5 -126t142.5 -205t52 -273.5t-52 -274t-142.5 -205.5t-211.5 -126t-260 -44.5t-260 44.5t-211.5 126t-142.5 205.5t-52 274zM266 625q0 -247 137 -381.5t367 -134.5t367 134.5t137 381.5 q0 246 -137.5 381t-366.5 135t-366.5 -135t-137.5 -381zM436 1516q0 46 27.5 73t79.5 27t78 -27t26 -73q0 -45 -26 -72t-78 -27t-79.5 27t-27.5 72zM889 1516q0 46 27 73t79 27t79.5 -27t27.5 -73q0 -45 -27.5 -72t-79.5 -27t-79 27t-27 72z" />
<glyph unicode="&#xd7;" horiz-adv-x="1069" d="M133 326l307 307l-307 309l92 94l310 -309l309 309l94 -94l-309 -309l309 -307l-94 -95l-309 310l-310 -310z" />
<glyph unicode="&#xd8;" horiz-adv-x="1540" d="M104 625q0 150 52 273.5t142.5 205t211.5 126t260 44.5q218 0 389 -109l96 117h136l-150 -178q195 -182 195 -479q0 -150 -52 -274t-142.5 -205.5t-211.5 -126t-260 -44.5q-228 0 -387 105l-96 -117h-137l149 180q-195 179 -195 482zM266 625q0 -238 127 -371l676 805 q-125 82 -299 82q-229 0 -366.5 -135t-137.5 -381zM473 186q127 -77 297 -77q230 0 367 134.5t137 381.5q0 226 -127 366z" />
<glyph unicode="&#xd9;" horiz-adv-x="1417" d="M152 535v714h159v-700q0 -231 96 -334.5t302 -103.5t302.5 103.5t96.5 334.5v700h158v-714q0 -307 -148 -437q-134 -123 -409 -123q-274 0 -408 123q-149 131 -149 437zM454 1659h180l164 -282h-108z" />
<glyph unicode="&#xda;" horiz-adv-x="1417" d="M152 535v714h159v-700q0 -231 96 -334.5t302 -103.5t302.5 103.5t96.5 334.5v700h158v-714q0 -307 -148 -437q-134 -123 -409 -123q-274 0 -408 123q-149 131 -149 437zM618 1376l164 283h181l-236 -283h-109z" />
<glyph unicode="&#xdb;" horiz-adv-x="1417" d="M152 535v714h159v-700q0 -231 96 -334.5t302 -103.5t302.5 103.5t96.5 334.5v700h158v-714q0 -307 -148 -437q-134 -123 -409 -123q-274 0 -408 123q-149 131 -149 437zM416 1376l235 273h115l235 -273h-116l-176 164l-177 -164h-116z" />
<glyph unicode="&#xdc;" horiz-adv-x="1417" d="M152 535v714h159v-700q0 -231 96 -334.5t302 -103.5t302.5 103.5t96.5 334.5v700h158v-714q0 -307 -148 -437q-134 -123 -409 -123q-274 0 -408 123q-149 131 -149 437zM375 1516q0 46 27 73t79 27t78.5 -27t26.5 -73q0 -45 -26.5 -72t-78.5 -27t-79 27t-27 72zM827 1516 q0 46 27.5 73t79.5 27t79 -27t27 -73q0 -45 -27 -72t-79 -27t-79.5 27t-27.5 72z" />
<glyph unicode="&#xdd;" horiz-adv-x="1249" d="M41 1249h166l264 -409l150 -248h8l149 248l264 409h166l-503 -766v-483h-160v483zM534 1377l164 282h180l-235 -282h-109z" />
<glyph unicode="&#xde;" horiz-adv-x="1171" d="M156 0v1249h157v-205h291q233 0 349 -88.5t116 -287.5t-116 -289t-349 -90h-291v-289h-157zM313 420h293q159 0 233 55t74 193q0 136 -73.5 190.5t-233.5 54.5h-293v-493z" />
<glyph unicode="&#xdf;" horiz-adv-x="1245" d="M152 0v915q0 94 27.5 172t83.5 139.5t151 95.5t221 34q195 0 306.5 -76.5t111.5 -224.5q0 -57 -23 -104t-57.5 -75t-74.5 -53.5t-74.5 -43.5t-57.5 -41.5t-23 -49.5q0 -27 22.5 -49.5t58.5 -40t79.5 -36t87 -44t79.5 -58t58.5 -84t22.5 -116.5q0 -130 -92 -206.5 t-248 -76.5q-135 0 -270 58v119q118 -58 254 -58q102 0 153 43.5t51 118.5q0 49 -22 87.5t-58 63t-78.5 45.5t-85.5 41.5t-79 45t-58 62.5t-22 87q0 40 17 71.5t44 53t59.5 40.5t65.5 37.5t60 40t44 53t17 71.5q0 84 -68 128t-192 44q-338 0 -338 -355v-874h-153z" />
<glyph unicode="&#xe0;" horiz-adv-x="1060" d="M90 266q0 150 110.5 228.5t288.5 78.5q133 0 277 -41v74q0 223 -262 223q-171 0 -330 -81v126q162 72 346 72q87 0 157 -18.5t125.5 -59.5t85.5 -111.5t30 -168.5v-588h-125l-17 158h-4q-43 -76 -132.5 -128.5t-213.5 -52.5q-156 0 -246 75t-90 214zM236 272 q0 -89 57.5 -133.5t159.5 -44.5q219 0 313 189v147q-148 37 -258 37q-272 0 -272 -195zM297 1331h180l164 -282h-109z" />
<glyph unicode="&#xe1;" horiz-adv-x="1060" d="M90 266q0 150 110.5 228.5t288.5 78.5q133 0 277 -41v74q0 223 -262 223q-171 0 -330 -81v126q162 72 346 72q87 0 157 -18.5t125.5 -59.5t85.5 -111.5t30 -168.5v-588h-125l-17 158h-4q-43 -76 -132.5 -128.5t-213.5 -52.5q-156 0 -246 75t-90 214zM236 272 q0 -89 57.5 -133.5t159.5 -44.5q219 0 313 189v147q-148 37 -258 37q-272 0 -272 -195zM420 1049l164 282h180l-236 -282h-108z" />
<glyph unicode="&#xe2;" horiz-adv-x="1060" d="M90 266q0 150 110.5 228.5t288.5 78.5q133 0 277 -41v74q0 223 -262 223q-171 0 -330 -81v126q162 72 346 72q87 0 157 -18.5t125.5 -59.5t85.5 -111.5t30 -168.5v-588h-125l-17 158h-4q-43 -76 -132.5 -128.5t-213.5 -52.5q-156 0 -246 75t-90 214zM236 272 q0 -89 57.5 -133.5t159.5 -44.5q219 0 313 189v147q-148 37 -258 37q-272 0 -272 -195zM238 1049l235 272h115l235 -272h-116l-177 163l-176 -163h-116z" />
<glyph unicode="&#xe3;" horiz-adv-x="1060" d="M90 266q0 150 110.5 228.5t288.5 78.5q133 0 277 -41v74q0 223 -262 223q-171 0 -330 -81v126q162 72 346 72q87 0 157 -18.5t125.5 -59.5t85.5 -111.5t30 -168.5v-588h-125l-17 158h-4q-43 -76 -132.5 -128.5t-213.5 -52.5q-156 0 -246 75t-90 214zM236 272 q0 -89 57.5 -133.5t159.5 -44.5q219 0 313 189v147q-148 37 -258 37q-272 0 -272 -195zM236 1079q-8 96 31 149.5t124 53.5q38 0 76.5 -16.5t65 -36.5t60 -36.5t62.5 -16.5q40 0 58.5 26.5t13.5 69.5h98q8 -95 -30.5 -149t-122.5 -54q-38 0 -78 16.5t-67.5 37t-61.5 37 t-62 16.5q-40 0 -57 -27.5t-12 -69.5h-98z" />
<glyph unicode="&#xe4;" horiz-adv-x="1060" d="M90 266q0 150 110.5 228.5t288.5 78.5q133 0 277 -41v74q0 223 -262 223q-171 0 -330 -81v126q162 72 346 72q87 0 157 -18.5t125.5 -59.5t85.5 -111.5t30 -168.5v-588h-125l-17 158h-4q-43 -76 -132.5 -128.5t-213.5 -52.5q-156 0 -246 75t-90 214zM197 1188q0 46 27 73 t79 27t78.5 -27t26.5 -73q0 -45 -26.5 -71.5t-78.5 -26.5t-79 26.5t-27 71.5zM236 272q0 -89 57.5 -133.5t159.5 -44.5q219 0 313 189v147q-148 37 -258 37q-272 0 -272 -195zM650 1188q0 46 27 73t79 27t79.5 -27t27.5 -73q0 -44 -27.5 -71t-79.5 -27t-79 26.5t-27 71.5z " />
<glyph unicode="&#xe5;" horiz-adv-x="1060" d="M90 266q0 150 110.5 228.5t288.5 78.5q133 0 277 -41v74q0 223 -262 223q-171 0 -330 -81v126q162 72 346 72q87 0 157 -18.5t125.5 -59.5t85.5 -111.5t30 -168.5v-588h-125l-17 158h-4q-43 -76 -132.5 -128.5t-213.5 -52.5q-156 0 -246 75t-90 214zM236 272 q0 -89 57.5 -133.5t159.5 -44.5q219 0 313 189v147q-148 37 -258 37q-272 0 -272 -195zM319 1194q0 81 58 133.5t153 52.5t153 -52.5t58 -133.5q0 -83 -57.5 -135.5t-153.5 -52.5t-153.5 52.5t-57.5 135.5zM418 1194q0 -50 30.5 -79.5t81.5 -29.5t82 30t31 79q0 47 -31 76.5 t-82 29.5t-81.5 -29.5t-30.5 -76.5z" />
<glyph unicode="&#xe6;" horiz-adv-x="1636" d="M90 266q0 143 104.5 221.5t276.5 83.5q57 0 88 -2q13 -2 47.5 -5.5t59 -7t43.5 -7.5q9 92 45 166q-59 114 -248 114q-175 0 -332 -75v123q156 69 350 69q217 0 312 -115q118 115 313 115q190 0 293.5 -114.5t103.5 -319.5q0 -32 -12 -98h-680q23 -322 340 -322 q68 0 135 22t160 70v-127q-161 -82 -307 -82q-276 0 -391 175q-51 -78 -142.5 -126.5t-218.5 -48.5q-156 0 -248 76t-92 215zM236 272q0 -89 60.5 -134.5t162.5 -45.5q181 0 286 137q-40 98 -40 217q-89 21 -191 21q-278 0 -278 -195zM856 518h549q0 160 -66.5 236.5 t-189.5 76.5q-265 0 -293 -313z" />
<glyph unicode="&#xe7;" horiz-adv-x="1005" d="M98 463q0 208 140 345.5t364 137.5q174 0 301 -69v-129q-129 79 -289 79q-163 0 -260.5 -101.5t-97.5 -262.5q0 -162 99 -265.5t261 -103.5q159 0 295 80v-127q-123 -72 -305 -72q-225 0 -366.5 137.5t-141.5 350.5zM487 -293q70 -18 121 -18q117 0 117 73q0 84 -189 88 l33 164l80 -8q0 -4 -8 -96q90 -5 146.5 -42.5t56.5 -117.5q0 -58 -35.5 -96t-84 -52t-106.5 -14q-61 0 -131 17v102z" />
<glyph unicode="&#xe8;" horiz-adv-x="1095" d="M98 465q0 214 126.5 347.5t350.5 133.5q203 0 317 -115t114 -319q0 -36 -15 -98h-745q8 -149 106 -235.5t269 -86.5q150 0 325 96v-131q-158 -82 -338 -82q-244 0 -377 135.5t-133 354.5zM246 518h622q-1 159 -79 236t-214 77q-144 0 -230.5 -86t-98.5 -227zM313 1331 h181l163 -282h-108z" />
<glyph unicode="&#xe9;" horiz-adv-x="1095" d="M98 465q0 214 126.5 347.5t350.5 133.5q203 0 317 -115t114 -319q0 -36 -15 -98h-745q8 -149 106 -235.5t269 -86.5q150 0 325 96v-131q-158 -82 -338 -82q-244 0 -377 135.5t-133 354.5zM246 518h622q-1 159 -79 236t-214 77q-144 0 -230.5 -86t-98.5 -227zM436 1049 l164 282h180l-235 -282h-109z" />
<glyph unicode="&#xea;" horiz-adv-x="1095" d="M98 465q0 214 126.5 347.5t350.5 133.5q203 0 317 -115t114 -319q0 -36 -15 -98h-745q8 -149 106 -235.5t269 -86.5q150 0 325 96v-131q-158 -82 -338 -82q-244 0 -377 135.5t-133 354.5zM246 518h622q-1 159 -79 236t-214 77q-144 0 -230.5 -86t-98.5 -227zM254 1049 l235 272h115l236 -272h-117l-176 163l-176 -163h-117z" />
<glyph unicode="&#xeb;" horiz-adv-x="1095" d="M98 465q0 214 126.5 347.5t350.5 133.5q203 0 317 -115t114 -319q0 -36 -15 -98h-745q8 -149 106 -235.5t269 -86.5q150 0 325 96v-131q-158 -82 -338 -82q-244 0 -377 135.5t-133 354.5zM215 1188q0 46 27.5 73t79.5 27t78 -27t26 -73q0 -45 -26 -71.5t-78 -26.5 t-79.5 27t-27.5 71zM246 518h622q-1 159 -79 236t-214 77q-144 0 -230.5 -86t-98.5 -227zM668 1188q0 46 27 73t79 27t79.5 -27t27.5 -73q0 -44 -27.5 -71t-79.5 -27t-79 26.5t-27 71.5z" />
<glyph unicode="&#xec;" horiz-adv-x="458" d="M-41 1331h180l164 -282h-108zM152 0v922h155v-922h-155z" />
<glyph unicode="&#xed;" horiz-adv-x="458" d="M152 0v922h155v-922h-155zM164 1049l164 282h180l-236 -282h-108z" />
<glyph unicode="&#xee;" horiz-adv-x="458" d="M-59 1049l235 272h115l236 -272h-117l-176 163l-176 -163h-117zM152 0v922h155v-922h-155z" />
<glyph unicode="&#xef;" horiz-adv-x="458" d="M-98 1188q0 46 27 73t79 27t78.5 -27t26.5 -73q0 -45 -26.5 -71.5t-78.5 -26.5t-79 26.5t-27 71.5zM152 0v922h155v-922h-155zM354 1188q0 46 27.5 73t79.5 27t79 -27t27 -73q0 -45 -27 -71.5t-79 -26.5t-79.5 27t-27.5 71z" />
<glyph unicode="&#xf0;" horiz-adv-x="1161" d="M90 420q0 84 25 157t74.5 132t132 94t188.5 39q75 3 162 -17q112 -29 211 -112q-9 214 -168 354l-340 -143v106l241 103q-141 78 -327 81v113q271 3 473 -135l297 125v-107l-211 -88q196 -196 205 -506q0 -104 -11 -180q-29 -226 -153.5 -343.5t-325.5 -117.5 q-203 0 -338 123t-135 322zM244 416q0 -155 92 -238.5t225 -83.5q162 0 243 109.5t95 320.5q-66 89 -141.5 140t-173.5 55q-166 19 -253 -69.5t-87 -233.5z" />
<glyph unicode="&#xf1;" horiz-adv-x="1175" d="M147 0v922h132l16 -158h4q170 182 389 182q163 0 253.5 -92t90.5 -272v-582h-153v563q0 133 -56 194.5t-168 61.5q-108 0 -191 -45.5t-161 -128.5v-645h-156zM293 1079q-8 96 31.5 149.5t124.5 53.5q38 0 76.5 -16.5t65 -36.5t60 -36.5t62.5 -16.5q40 0 58 26.5t13 69.5 h99q8 -95 -31 -149t-123 -54q-38 0 -77.5 16.5t-67.5 37t-61.5 37t-61.5 16.5q-40 0 -57.5 -27.5t-12.5 -69.5h-98z" />
<glyph unicode="&#xf2;" horiz-adv-x="1200" d="M98 463q0 208 138 345.5t364 137.5t364 -137.5t138 -345.5q0 -136 -60.5 -246.5t-176 -176t-265.5 -65.5t-265.5 65.5t-176 176t-60.5 246.5zM256 463q0 -161 95 -265t249 -104t249 104t95 265t-95 262.5t-249 101.5t-249 -101.5t-95 -262.5zM367 1331h180l164 -282h-109 z" />
<glyph unicode="&#xf3;" horiz-adv-x="1200" d="M98 463q0 208 138 345.5t364 137.5t364 -137.5t138 -345.5q0 -136 -60.5 -246.5t-176 -176t-265.5 -65.5t-265.5 65.5t-176 176t-60.5 246.5zM256 463q0 -161 95 -265t249 -104t249 104t95 265t-95 262.5t-249 101.5t-249 -101.5t-95 -262.5zM489 1049l164 282h181 l-236 -282h-109z" />
<glyph unicode="&#xf4;" horiz-adv-x="1200" d="M98 463q0 208 138 345.5t364 137.5t364 -137.5t138 -345.5q0 -136 -60.5 -246.5t-176 -176t-265.5 -65.5t-265.5 65.5t-176 176t-60.5 246.5zM256 463q0 -161 95 -265t249 -104t249 104t95 265t-95 262.5t-249 101.5t-249 -101.5t-95 -262.5zM307 1049l236 272h114 l236 -272h-117l-176 163l-176 -163h-117z" />
<glyph unicode="&#xf5;" horiz-adv-x="1200" d="M98 463q0 208 138 345.5t364 137.5t364 -137.5t138 -345.5q0 -136 -60.5 -246.5t-176 -176t-265.5 -65.5t-265.5 65.5t-176 176t-60.5 246.5zM256 463q0 -161 95 -265t249 -104t249 104t95 265t-95 262.5t-249 101.5t-249 -101.5t-95 -262.5zM305 1079q-8 96 31.5 149.5 t124.5 53.5q38 0 76.5 -16.5t65 -36.5t60 -36.5t62.5 -16.5q40 0 58.5 26.5t13.5 69.5h98q8 -95 -31 -149t-123 -54q-38 0 -77.5 16.5t-67.5 37t-61.5 37t-61.5 16.5q-40 0 -57.5 -27.5t-12.5 -69.5h-98z" />
<glyph unicode="&#xf6;" horiz-adv-x="1200" d="M98 463q0 208 138 345.5t364 137.5t364 -137.5t138 -345.5q0 -136 -60.5 -246.5t-176 -176t-265.5 -65.5t-265.5 65.5t-176 176t-60.5 246.5zM256 463q0 -161 95 -265t249 -104t249 104t95 265t-95 262.5t-249 101.5t-249 -101.5t-95 -262.5zM266 1188q0 46 27.5 73 t79.5 27t78 -27t26 -73q0 -45 -26 -71.5t-78 -26.5t-79.5 27t-27.5 71zM719 1188q0 46 27 73t79 27t79.5 -27t27.5 -73q0 -44 -27.5 -71t-79.5 -27t-79 26.5t-27 71.5z" />
<glyph unicode="&#xf7;" horiz-adv-x="1069" d="M98 571v125h873v-125h-873zM418 295q0 53 34 86t85 33q50 0 84 -34t34 -85q0 -53 -34 -87t-84 -34t-84.5 34t-34.5 87zM418 969q0 53 34 85.5t85 32.5t84.5 -32.5t33.5 -85.5t-34 -87t-84 -34t-84.5 34t-34.5 87z" />
<glyph unicode="&#xf8;" horiz-adv-x="1200" d="M98 463q0 208 138 345.5t364 137.5q166 0 291 -80l74 88h112l-119 -141q144 -138 144 -350q0 -136 -60.5 -246.5t-176 -176t-265.5 -65.5q-166 0 -291 80l-76 -92h-110l121 141q-146 143 -146 359zM256 463q0 -150 84 -246l463 549q-79 61 -203 61q-154 0 -249 -101.5 t-95 -262.5zM399 156q80 -62 201 -62q148 0 245 104.5t97 268.5q0 129 -80 235z" />
<glyph unicode="&#xf9;" horiz-adv-x="1144" d="M143 324v598h154v-578q0 -127 55 -184.5t164 -57.5q186 0 328 177v643h153v-922h-129l-16 158h-4q-151 -183 -361 -183q-164 0 -254 87t-90 262zM338 1331h180l164 -282h-109z" />
<glyph unicode="&#xfa;" horiz-adv-x="1144" d="M143 324v598h154v-578q0 -127 55 -184.5t164 -57.5q186 0 328 177v643h153v-922h-129l-16 158h-4q-151 -183 -361 -183q-164 0 -254 87t-90 262zM461 1049l164 282h180l-236 -282h-108z" />
<glyph unicode="&#xfb;" horiz-adv-x="1144" d="M143 324v598h154v-578q0 -127 55 -184.5t164 -57.5q186 0 328 177v643h153v-922h-129l-16 158h-4q-151 -183 -361 -183q-164 0 -254 87t-90 262zM279 1049l235 272h115l235 -272h-116l-177 163l-176 -163h-116z" />
<glyph unicode="&#xfc;" horiz-adv-x="1144" d="M143 324v598h154v-578q0 -127 55 -184.5t164 -57.5q186 0 328 177v643h153v-922h-129l-16 158h-4q-151 -183 -361 -183q-164 0 -254 87t-90 262zM240 1188q0 46 27 73t79 27t78.5 -27t26.5 -73q0 -45 -26.5 -71.5t-78.5 -26.5t-79 26.5t-27 71.5zM692 1188q0 46 27.5 73 t79.5 27t79 -27t27 -73q0 -45 -27 -71.5t-79 -26.5t-79.5 27t-27.5 71z" />
<glyph unicode="&#xfd;" horiz-adv-x="1026" d="M39 922h154l219 -523l104 -262h4l109 293l196 492h160l-485 -1137q-27 -65 -50.5 -106.5t-56.5 -76t-75 -50t-99 -15.5q-68 0 -153 35v125q4 -2 18 -8.5t20.5 -9.5t21 -8.5t25.5 -8t26.5 -4.5t31.5 -2q58 0 93 36t67 118l75 190zM421 1049l164 282h180l-235 -282h-109z " />
<glyph unicode="&#xfe;" horiz-adv-x="1155" d="M152 -440v1771h155v-393q0 -29 -1 -85t-1 -83h4q142 176 338 176q191 0 298.5 -128t107.5 -345q0 -244 -110.5 -371t-285.5 -127q-231 0 -352 175h-4q6 -120 6 -248v-342h-155zM307 281q46 -78 131.5 -130.5t188.5 -52.5q118 0 194 94t76 279q0 160 -68 257t-211 97 q-182 0 -311 -182v-362z" />
<glyph unicode="&#xff;" horiz-adv-x="1026" d="M39 922h154l219 -523l104 -262h4l109 293l196 492h160l-485 -1137q-27 -65 -50.5 -106.5t-56.5 -76t-75 -50t-99 -15.5q-68 0 -153 35v125q4 -2 18 -8.5t20.5 -9.5t21 -8.5t25.5 -8t26.5 -4.5t31.5 -2q58 0 93 36t67 118l75 190zM180 1188q0 46 27.5 73t79.5 27t78 -27 t26 -73q0 -45 -26 -71.5t-78 -26.5t-79.5 27t-27.5 71zM633 1188q0 46 27 73t79 27t79.5 -27t27.5 -73q0 -44 -27.5 -71t-79.5 -27t-79 26.5t-27 71.5z" />
<glyph unicode="&#x131;" horiz-adv-x="458" d="M152 0v922h155v-922h-155z" />
<glyph unicode="&#x141;" horiz-adv-x="976" d="M41 416v112l119 62v659h157v-573l334 178v-113l-334 -176v-432h603v-133h-760v479z" />
<glyph unicode="&#x142;" horiz-adv-x="462" d="M20 477v113l134 69v652h155v-566l133 70v-113l-133 -69v-633h-155v549z" />
<glyph unicode="&#x152;" horiz-adv-x="1912" d="M104 625q0 150 52 273.5t143 205t212.5 126t260.5 44.5q124 0 240 -25h794v-133h-637v-414h582v-131h-582v-438h637v-133h-794q-103 -25 -240 -25q-111 0 -211.5 28t-184 83t-144.5 132.5t-94.5 181.5t-33.5 225zM268 625q0 -247 137 -381.5t367 -134.5q152 0 240 28v971 q-88 33 -240 33q-229 0 -366.5 -135t-137.5 -381z" />
<glyph unicode="&#x153;" horiz-adv-x="1845" d="M98 463q0 208 132 345.5t348 137.5q137 0 237.5 -58.5t155.5 -164.5q51 107 148 165t235 58q187 0 294 -115.5t107 -318.5q0 -49 -12 -98h-696q8 -149 98.5 -235.5t249.5 -86.5q157 0 303 86v-127q-149 -76 -316 -76q-293 0 -409 228q-56 -107 -156.5 -167.5 t-238.5 -60.5q-215 0 -347.5 139.5t-132.5 348.5zM256 463q0 -162 88 -265.5t234 -103.5q143 0 233 102t90 267q0 163 -90 263.5t-233 100.5q-146 0 -234 -101.5t-88 -262.5zM1047 518h567q0 159 -70 236t-194 77q-132 0 -211.5 -86t-91.5 -227z" />
<glyph unicode="&#x160;" horiz-adv-x="1058" d="M94 68v135q191 -99 402 -99q305 0 305 203q0 39 -18 74t-37 56.5t-69 51t-74 40.5t-92 41q-9 4 -14 6.5t-12.5 5.5t-13.5 6q-45 19 -72 31.5t-70 35.5t-69.5 42.5t-58 49.5t-49.5 60.5t-30.5 70.5t-12.5 85q0 157 114.5 234t313.5 77q185 0 340 -64v-135q-172 70 -330 70 q-140 0 -210.5 -42.5t-70.5 -137.5q0 -44 18.5 -79.5t68 -69t81 -50t110.5 -52.5q23 -11 34 -16q145 -67 192 -96q167 -102 188 -248q3 -23 3 -47q0 -164 -126 -248t-329 -84q-127 0 -234 26.5t-178 66.5zM236 1649h117l176 -162l176 162h117l-236 -272h-115z" />
<glyph unicode="&#x161;" horiz-adv-x="864" d="M86 33v125q155 -64 299 -64q242 0 242 131q0 32 -10 55.5t-26 40.5t-49.5 33.5t-64.5 28t-88 31.5q-2 1 -3.5 1.5t-4 1t-4.5 1.5q-43 17 -62 24.5t-56.5 25t-55.5 30.5t-44 35.5t-38 45.5t-21.5 54.5t-9.5 68.5q0 116 88 180t262 64q157 0 273 -57v-121q-124 61 -252 61 q-225 0 -225 -122q0 -35 15 -61t44 -45t64 -34t83 -33q5 -1 8 -2t7 -3t8 -3q39 -13 63.5 -22t60.5 -25t59 -31t49.5 -38.5t41.5 -48.5t25 -59t10 -73q0 -126 -100.5 -190t-267.5 -64q-93 0 -179.5 16.5t-140.5 41.5zM139 1321h117l176 -162l176 162h117l-236 -272h-114z" />
<glyph unicode="&#x178;" horiz-adv-x="1249" d="M41 1249h166l264 -409l150 -248h8l149 248l264 409h166l-503 -766v-483h-160v483zM291 1516q0 46 27 73t79 27t78.5 -27t26.5 -73q0 -45 -26.5 -72t-78.5 -27t-79 27t-27 72zM743 1516q0 46 27.5 73t79.5 27t79 -27t27 -73q0 -45 -27 -72t-79 -27t-79.5 27t-27.5 72z" />
<glyph unicode="&#x17d;" horiz-adv-x="1146" d="M92 0v117l744 1005l-717 -4v131h895v-116l-744 -1004l779 2v-131h-957zM281 1649h116l176 -162l177 162h116l-235 -273h-115z" />
<glyph unicode="&#x17e;" horiz-adv-x="942" d="M78 0v106l569 695l-543 -2v123h725v-107l-571 -694l598 2v-123h-778zM178 1321h117l176 -162l176 162h117l-236 -272h-114z" />
<glyph unicode="&#x192;" horiz-adv-x="1253" d="M57 -362l19 126q65 -26 139 -26q105 0 148.5 53.5t64.5 192.5l111 761h-191l17 119h190q16 99 44.5 173.5t78 135.5t127.5 93t182 32q84 0 156 -26l-17 -125q-67 24 -143 24q-116 0 -184 -72.5t-92 -234.5h319l-18 -119h-318l-117 -802q-47 -332 -346 -332q-79 0 -170 27 z" />
<glyph unicode="&#x2c6;" horiz-adv-x="667" d="M41 1049l235 272h115l236 -272h-117l-176 163l-176 -163h-117z" />
<glyph unicode="&#x2c7;" horiz-adv-x="667" d="M41 1321h117l176 -162l176 162h117l-236 -272h-115z" />
<glyph unicode="&#x2d8;" horiz-adv-x="667" d="M51 1315h99q0 -180 184 -180t184 180h98q0 -140 -78 -208.5t-204 -68.5t-204.5 68.5t-78.5 208.5z" />
<glyph unicode="&#x2d9;" horiz-adv-x="667" d="M221 1188q0 49 28.5 76.5t84.5 27.5t84 -27.5t28 -76.5q0 -46 -28.5 -74.5t-83.5 -28.5t-84 28.5t-29 74.5z" />
<glyph unicode="&#x2da;" horiz-adv-x="667" d="M123 1194q0 81 58 133.5t153 52.5t153 -52.5t58 -133.5q0 -83 -57.5 -135.5t-153.5 -52.5t-153.5 52.5t-57.5 135.5zM221 1194q0 -49 31 -79t82 -30t81.5 29.5t30.5 79.5q0 47 -30.5 76.5t-81.5 29.5t-82 -29.5t-31 -76.5z" />
<glyph unicode="&#x2db;" horiz-adv-x="667" d="M127 -197q0 40 20.5 76.5t48.5 60.5t62.5 43.5t57 28.5t38.5 13l64 -25q-64 -32 -116 -76.5t-52 -93.5q0 -90 108 -90q66 0 127 22v-88q-68 -30 -151 -30q-96 0 -151.5 40t-55.5 119z" />
<glyph unicode="&#x2dc;" horiz-adv-x="667" d="M39 1079q-8 96 31.5 149.5t124.5 53.5q38 0 76.5 -16.5t65 -36.5t60 -36.5t62.5 -16.5q40 0 58 26.5t13 69.5h99q8 -95 -31 -149t-123 -54q-38 0 -77.5 16.5t-67.5 37t-61.5 37t-61.5 16.5q-40 0 -57.5 -27.5t-12.5 -69.5h-98z" />
<glyph unicode="&#x2dd;" horiz-adv-x="667" d="M76 1049l188 282h197l-268 -282h-117zM471 1049l188 282h197l-268 -282h-117z" />
<glyph unicode="&#x3a9;" horiz-adv-x="1396" d="M94 713q0 118 35.5 217.5t106 177.5t189 122t273.5 44t273.5 -44t189.5 -122t106.5 -177.5t35.5 -217.5q0 -181 -100 -342t-245 -250h306v-121h-467v115q346 279 346 590q0 70 -13 131.5t-45 119t-81.5 98t-127.5 65t-178 24.5t-178 -24.5t-127.5 -65t-81 -98t-44.5 -119 t-13 -131.5q0 -167 96 -319t250 -271v-115h-467v121h305q-144 89 -244 250t-100 342z" />
<glyph unicode="&#x3c0;" horiz-adv-x="1228" d="M66 799v123h1069v-134h-215v-520q0 -90 31 -130t100 -40q15 0 82 13v-115q-47 -14 -119 -14q-60 0 -104 14.5t-70.5 38.5t-42.5 60.5t-21.5 74t-5.5 86.5v532h-350l-49 -788h-148l49 788z" />
<glyph unicode="&#xe00;" horiz-adv-x="358" />
<glyph unicode="&#xe01;" horiz-adv-x="1302" d="M156 0v1063q262 82 510 82q243 0 364 -114t121 -357v-674h-156v664q0 192 -78 271t-264 79q-180 0 -342 -45v-969h-155z" />
<glyph unicode="&#xe02;" horiz-adv-x="1202" d="M109 389q0 76 28 143.5t67.5 115.5t79 90.5t67.5 88.5t28 91q0 96 -115 96q-66 0 -141 -27v129q64 23 160 23q117 0 177 -55.5t60 -155.5q0 -62 -26.5 -118t-64.5 -101l-76 -90t-64.5 -104.5t-26.5 -125.5q0 -134 78 -209.5t235 -75.5q320 0 320 351v665h156v-665 q0 -234 -127.5 -357t-348.5 -123q-226 0 -346 109.5t-120 304.5z" />
<glyph unicode="&#xe03;" horiz-adv-x="1214" d="M94 993v144q73 -82 156 -82q82 0 153 65h132v-119q0 -82 -27 -152.5t-65.5 -120.5t-76.5 -98.5t-65 -109.5t-27 -131q0 -133 78.5 -209t235.5 -76t238 85t81 266v665h156v-665q0 -234 -127 -357t-348 -123q-226 0 -346.5 109.5t-120.5 304.5q0 61 15 115.5t38.5 95 t52.5 77.5t58 71.5t53.5 69t40.5 78t18 91.5h-4q-62 -49 -153 -49q-40 0 -80.5 15.5t-65.5 39.5z" />
<glyph unicode="&#xe04;" horiz-adv-x="1351" d="M152 0v649q0 244 140.5 370t383.5 126q246 0 385 -125.5t139 -370.5v-649h-153v643q0 193 -91.5 282t-279.5 89q-187 0 -279 -89.5t-92 -281.5v-217q46 81 137 136.5t201 55.5q63 0 119 -18v-145q-59 24 -125 24q-112 0 -190.5 -45.5t-141.5 -136.5v-297h-153z" />
<glyph unicode="&#xe05;" horiz-adv-x="1376" d="M152 0v766q0 184 71.5 281.5t216.5 97.5q90 0 156 -46t90 -120h4q24 74 90 120t156 46q145 0 217 -98t72 -281v-766h-156v760q0 135 -33.5 194.5t-122.5 59.5q-122 0 -153 -158h-144q-27 158 -151 158q-89 0 -123.5 -58.5t-34.5 -195.5v-334q44 78 140 135t204 57 q85 0 125 -18v-145q-67 24 -131 24q-201 0 -338 -182v-297h-155z" />
<glyph unicode="&#xe06;" horiz-adv-x="1300" d="M86 993v144q73 -82 156 -82q82 0 153 65h133v-119q0 -71 -22 -136.5t-53 -117t-62.5 -101t-53.5 -108t-22 -118.5v-74q69 -104 175 -172t233 -68q270 0 270 283v731h156v-739q0 -197 -105.5 -301.5t-283.5 -104.5q-144 0 -249.5 56t-193.5 155h-4l-22 -186h-131v416 q0 71 23 135.5t56 115t66.5 99.5t57.5 107.5t26 119.5h-4q-69 -55 -156 -55q-84 0 -143 55z" />
<glyph unicode="&#xe07;" horiz-adv-x="1208" d="M12 1120h164l365 -991h2q201 59 302 199t101 319q0 173 -76 270t-211 97q-79 0 -149 -25v131q82 21 168 21q184 0 304 -132t120 -360q0 -96 -23 -181t-64 -151t-95 -120t-119 -92.5t-131.5 -64.5t-137.5 -40h-94l-332 897q-74 183 -94 223z" />
<glyph unicode="&#xe08;" horiz-adv-x="1191" d="M78 913v138q200 94 438 94q146 0 257 -41.5t178.5 -117t100.5 -173.5t33 -217q0 -130 -48 -239t-127.5 -181t-174 -116.5t-196.5 -59.5h-129l-189 414q-47 95 -90 168h178l201 -459q79 9 152.5 44t134 92.5t97 145t36.5 191.5q0 202 -105.5 310t-320.5 108t-426 -101z " />
<glyph unicode="&#xe09;" horiz-adv-x="1257" d="M115 911v140q85 40 204 67t242 27q259 0 402 -116.5t143 -352.5v-676h-129l-23 186h-4q-36 -45 -73.5 -79.5t-89.5 -66t-119 -48.5t-146 -17q-372 0 -372 379v111q0 87 -15 149h168v-249q0 -132 59 -195.5t195 -63.5q248 0 393 234v324q0 188 -100 269t-309 81 q-211 0 -426 -103z" />
<glyph unicode="&#xe0a;" horiz-adv-x="1224" d="M109 389q0 76 28 143.5t67.5 115.5t79 90.5t67.5 88.5t28 91q0 96 -115 96q-66 0 -141 -27v129q64 23 160 23q117 0 177 -55.5t60 -155.5q0 -62 -26.5 -118t-64.5 -101l-76 -90t-64.5 -104.5t-26.5 -125.5q0 -132 84 -207.5t246 -75.5q167 0 256.5 90t89.5 261 q0 83 -21 146t-61 104t-87 66.5t-110 43.5v51l252 252h176l-270 -256q277 -107 277 -413q0 -232 -135.5 -354t-364.5 -122q-232 0 -358.5 110t-126.5 304z" />
<glyph unicode="&#xe0b;" horiz-adv-x="1236" d="M94 993v144q73 -82 156 -82q82 0 153 65h132v-119q0 -82 -27 -152.5t-65.5 -120.5t-76.5 -98.5t-65 -109.5t-27 -131q0 -132 84 -207.5t246 -75.5q167 0 256.5 90t89.5 261q0 83 -20.5 146t-60.5 104t-87 66.5t-110 43.5v51l252 252h176l-271 -256q277 -107 277 -413 q0 -232 -135.5 -354t-364.5 -122q-232 0 -358.5 110t-126.5 304q0 61 15 115.5t38.5 95t52.5 77.5t58 71.5t53.5 69t40.5 78t18 91.5h-4q-62 -49 -153 -49q-40 0 -80.5 15.5t-65.5 39.5z" />
<glyph unicode="&#xe0c;" horiz-adv-x="2011" d="M156 272v791q262 82 483 82q226 0 341.5 -112.5t115.5 -346.5v-340q63 -103 161 -171.5t213 -68.5q125 0 179.5 69.5t54.5 205.5v739h156v-747q0 -196 -95 -297t-260 -101q-234 0 -407 211h-4l-23 -186h-131v676q0 182 -72.5 260t-240.5 78q-166 0 -316 -45v-682 q0 -107 37.5 -145t120.5 -38q76 0 145 27v-127q-76 -27 -170 -27q-288 0 -288 295z" />
<glyph unicode="&#xe0d;" horiz-adv-x="2009" d="M156 272v791q262 82 483 82q226 0 341.5 -112.5t115.5 -346.5v-237q0 -279 303 -279q305 0 305 279v671h154v-678q0 -198 -119.5 -300.5t-339.5 -102.5q-219 0 -339 102.5t-120 300.5v234q0 182 -72.5 260t-240.5 78q-166 0 -316 -45v-682q0 -107 37.5 -145t120.5 -38 q76 0 145 27v-127q-76 -27 -170 -27q-288 0 -288 295zM963 -176l59 110q151 -108 381 -108t381 108l59 -110q-73 -52 -190 -88.5t-250 -36.5q-135 0 -252 35.5t-188 89.5z" />
<glyph unicode="&#xe0e;" horiz-adv-x="1341" d="M37 -8v129q53 -17 98 -17q115 0 115 150v809q262 82 481 82q231 0 345 -111t114 -342v-1169h-137l-310 98q-123 45 -196 45q-70 0 -111.5 -35.5t-40.5 -105.5h-135q0 130 79.5 198t205.5 68q98 0 233 -47l256 -92v1030q0 180 -70.5 256t-242.5 76q-153 0 -315 -45v-719 q0 -273 -238 -273q-73 0 -131 15z" />
<glyph unicode="&#xe0f;" horiz-adv-x="1341" d="M37 -8v129q53 -17 98 -17q115 0 115 150v809q262 82 481 82q231 0 345 -111t114 -342v-1169h-164q-113 0 -192.5 38t-104.5 120q-29 -78 -98.5 -121t-167.5 -43q-117 0 -205 49v137q95 -65 199 -65q86 0 135.5 42t69.5 130h131q44 -162 204 -162h37v1034q0 180 -70.5 256 t-242.5 76q-153 0 -315 -45v-719q0 -273 -238 -273q-73 0 -131 15z" />
<glyph unicode="&#xe10;" horiz-adv-x="1191" d="M78 913v138q200 94 438 94q146 0 279 -58l127 130h192l-213 -197q184 -156 184 -424q0 -130 -48 -239t-127.5 -181t-174 -116.5t-196.5 -59.5h-129l-189 414q-47 95 -90 168h178l201 -459q79 9 152.5 44t134 92.5t97 145t36.5 191.5q0 202 -105.5 310t-320.5 108 t-426 -101zM111 -475q0 130 79 198t205 68q97 0 221 -43l236 -96v242h154v-371h-136l-288 102q-112 41 -185 41q-69 0 -110 -35t-41 -106h-135z" />
<glyph unicode="&#xe11;" horiz-adv-x="1341" d="M94 993v144q73 -82 154 -82q82 0 153 65h97l14 -119q64 62 155.5 103t198.5 41q149 0 236.5 -94t87.5 -279v-772h-156v764q0 131 -45.5 191.5t-148.5 60.5q-106 0 -205 -58.5t-167 -147.5t-108.5 -195t-40.5 -201v-414h-155v416q0 80 23 151.5t56.5 123t67 99t58 99.5 t26.5 104h-4q-62 -55 -153 -55q-85 0 -144 55z" />
<glyph unicode="&#xe12;" horiz-adv-x="2189" d="M106 545q0 173 49.5 308.5t143.5 213.5t219 78q171 0 225 -166h5q26 75 87 120.5t150 45.5q125 0 187.5 -86.5t62.5 -243.5v-469q68 -106 168.5 -173t226.5 -67q131 0 191.5 72t60.5 211v731h156v-739q0 -200 -99 -303t-274 -103q-140 0 -239 55t-189 156h-4l-23 -186 h-129v805q0 110 -30 159.5t-101 49.5q-105 0 -133 -158h-143q-21 79 -51 118.5t-95 39.5q-61 0 -109 -31.5t-77 -79.5t-47.5 -112.5t-25.5 -124t-7 -119.5q0 -96 20 -174t62.5 -140t117 -96.5t175.5 -34.5q84 0 168 35v-127q-90 -33 -191 -33q-110 0 -197.5 31.5t-144.5 85 t-95 127t-54.5 154t-16.5 170.5z" />
<glyph unicode="&#xe13;" horiz-adv-x="2013" d="M156 272v791q262 82 483 82q226 0 341.5 -112.5t115.5 -346.5v-328q0 -129 55.5 -190.5t177.5 -61.5q114 0 213.5 69t161.5 171v774h154v-1120h-129l-23 186h-4q-167 -211 -414 -211q-162 0 -255 91.5t-93 279.5v330q0 182 -72.5 260t-240.5 78q-166 0 -316 -45v-682 q0 -107 37.5 -145t120.5 -38q76 0 145 27v-127q-76 -27 -170 -27q-288 0 -288 295z" />
<glyph unicode="&#xe14;" horiz-adv-x="1337" d="M106 522q0 142 47 260t128 197t189 122.5t230 43.5q280 0 482 -172v-973h-156v920q-133 94 -319 94q-197 0 -321 -127.5t-124 -364.5q0 -92 21 -166t64.5 -131.5t118.5 -89t177 -31.5q78 0 164 33v-129q-84 -31 -186 -31q-110 0 -198 30.5t-146.5 81.5t-97.5 122t-56 148 t-17 163z" />
<glyph unicode="&#xe15;" horiz-adv-x="1409" d="M106 545q0 173 50 308.5t145 213.5t221 78q90 0 148 -44t82 -120h4q26 74 88.5 119t152.5 45q126 0 191 -87t65 -243v-815h-155v805q0 209 -125 209q-120 0 -148 -158h-143q-20 77 -53.5 117.5t-100.5 40.5q-119 0 -192.5 -124t-73.5 -343q0 -95 20 -172.5t63 -139.5 t118 -96.5t176 -34.5q84 0 168 35v-129q-90 -33 -191 -33q-110 0 -197.5 31.5t-145 85t-96 127t-55 154t-16.5 170.5z" />
<glyph unicode="&#xe16;" horiz-adv-x="1308" d="M156 272v791q262 82 514 82q243 0 365 -114.5t122 -356.5v-674h-156v664q0 191 -78.5 270.5t-265.5 79.5q-184 0 -346 -45v-680q0 -109 38 -147t132 -38q75 0 154 33v-127q-79 -33 -180 -33q-299 0 -299 295z" />
<glyph unicode="&#xe17;" horiz-adv-x="1339" d="M156 0v1120h131l22 -186h4q224 211 490 211q178 0 281.5 -104t103.5 -302v-739h-156v731q0 283 -246 283q-135 0 -250 -56.5t-225 -164.5v-793h-155z" />
<glyph unicode="&#xe18;" horiz-adv-x="1239" d="M121 866q0 137 132.5 208t369.5 71q112 0 226.5 -20t190.5 -50v-135q-181 78 -405 78q-82 0 -143 -6.5t-112.5 -22.5t-78.5 -46.5t-27 -74.5q0 -22 5 -39.5t18 -32t25 -25t38 -20t43.5 -16t55 -14l60 -12t70.5 -12.5t75 -13q61 -12 107 -23t96.5 -28t87 -36.5t71 -48 t56 -62.5t34 -79.5t12.5 -99.5q0 -177 -129.5 -254.5t-375.5 -77.5q-235 0 -467 56v463h151v-361q120 -27 316 -27q71 0 123 5t97 18t73 35t43.5 56.5t15.5 82.5q0 52 -19 91.5t-48 65t-78.5 45t-96 30.5t-115.5 22q-206 34 -277 56q-160 50 -203 154q-17 44 -17 99z" />
<glyph unicode="&#xe19;" horiz-adv-x="1296" d="M152 365v755h155v-747q0 -135 64.5 -201t203.5 -66q130 0 236.5 66t173.5 168v780h156v-1120h-131l-23 186h-4q-166 -211 -438 -211q-185 0 -289 97.5t-104 292.5z" />
<glyph unicode="&#xe1a;" horiz-adv-x="1302" d="M152 473v647h155v-641q0 -199 82.5 -286t261.5 -87t261.5 87t82.5 286v641h156v-647q0 -498 -500 -498q-499 0 -499 498z" />
<glyph unicode="&#xe1b;" horiz-adv-x="1302" d="M152 473v647h155v-641q0 -199 82.5 -286t261.5 -87t261.5 87t82.5 286v1118h156v-1124q0 -498 -500 -498q-499 0 -499 498z" />
<glyph unicode="&#xe1c;" horiz-adv-x="1394" d="M156 0v893q0 30 4 58t19.5 65t41 63.5t73.5 45t112 18.5q68 0 126 -15v-129q-53 17 -98 17q-69 0 -98 -36.5t-29 -121.5v-399q0 -191 -16 -301h4q67 133 154 268l190 303h123l186 -301q74 -114 152 -270h4q-17 149 -17 301v661h152v-1120h-162l-375 604l-383 -604h-163z " />
<glyph unicode="&#xe1d;" horiz-adv-x="1394" d="M156 0v893q0 30 4 58t19.5 65t41 63.5t73.5 45t112 18.5q68 0 126 -15v-129q-53 17 -98 17q-69 0 -98 -36.5t-29 -121.5v-399q0 -191 -16 -301h4q67 133 154 268l190 303h123l186 -301q74 -114 152 -270h4q-17 149 -17 301v1138h152v-1597h-162l-375 604l-383 -604h-163z " />
<glyph unicode="&#xe1e;" horiz-adv-x="1519" d="M47 1120h172l131 -647q16 -76 51 -348h7q30 212 75 348l205 647h143l205 -647q47 -142 76 -348h6q35 272 51 348l131 647h152l-242 -1120h-161l-226 723q-32 98 -61 260h-4q-28 -155 -62 -260l-225 -723h-162l-190 883q-36 152 -72 237z" />
<glyph unicode="&#xe1f;" horiz-adv-x="1519" d="M47 1120h172l119 -647q16 -76 51 -348h6q29 206 76 348l201 647h143l209 -647q47 -142 76 -348h6q35 272 51 348l195 1124h143l-297 -1597h-162l-229 723q-34 105 -62 260h-4q-29 -162 -61 -260l-221 -723h-162l-191 883q-7 31 -19 87t-21 90.5t-19 59.5z" />
<glyph unicode="&#xe20;" horiz-adv-x="1341" d="M37 -8v129q53 -17 98 -17q115 0 115 150v809q262 82 481 82q231 0 345 -111t114 -342v-692h-156v682q0 180 -70.5 256t-242.5 76q-153 0 -315 -45v-719q0 -273 -238 -273q-73 0 -131 15z" />
<glyph unicode="&#xe21;" horiz-adv-x="1296" d="M156 0v1120h155v-774q69 -104 175 -172t233 -68q270 0 270 283v731h156v-739q0 -197 -105.5 -301.5t-283.5 -104.5q-144 0 -249.5 56t-193.5 155h-4l-22 -186h-131z" />
<glyph unicode="&#xe22;" horiz-adv-x="1282" d="M119 319q0 89 47.5 156t124.5 105v4q-164 67 -164 262q0 132 90 214.5t242 82.5q101 0 192 -31v-129q-79 33 -168 33t-146.5 -43.5t-57.5 -130.5q0 -101 59.5 -138.5t200.5 -37.5h180v-123h-297q-148 -67 -148 -209q0 -119 81.5 -173.5t240.5 -54.5q125 0 213.5 23.5 t161.5 77.5v913h155v-977q-117 -84 -236.5 -126t-295.5 -42q-107 0 -191.5 18.5t-149 58.5t-99.5 107.5t-35 159.5z" />
<glyph unicode="&#xe23;" horiz-adv-x="1097" d="M115 856q0 133 108.5 211t317.5 78q104 0 204.5 -22t167.5 -54v-131q-180 82 -360 82q-291 0 -291 -160q0 -24 9.5 -45t22.5 -37.5t40.5 -34t47.5 -28t61.5 -27t65 -24.5t73.5 -25q62 -22 95 -34.5t82.5 -34.5t76 -39.5t58.5 -45t47.5 -56t26.5 -67t11 -83.5 q0 -151 -119 -227.5t-328 -76.5q-115 0 -223 26t-182 65v135q206 -101 403 -101q297 0 297 179q0 98 -117 162q-53 30 -189 77q-18 7 -27 10q-166 59 -230 97q-146 91 -149 231z" />
<glyph unicode="&#xe24;" horiz-adv-x="1308" d="M156 272v791q262 82 514 82q243 0 365 -114.5t122 -356.5v-1131h-156v1121q0 191 -78.5 270.5t-265.5 79.5q-184 0 -346 -45v-680q0 -109 38 -147t132 -38q75 0 154 33v-127q-79 -33 -180 -33q-299 0 -299 295z" />
<glyph unicode="&#xe25;" horiz-adv-x="1257" d="M98 289q0 93 37 162.5t104.5 115t175 73t236 39t299.5 11.5v17q0 159 -82.5 234t-253.5 75q-230 0 -450 -105v142q196 92 446 92q496 0 496 -430v-715h-156v567q-100 0 -175 -2.5t-151 -10t-130 -20t-101.5 -32.5t-76.5 -48.5t-45.5 -68.5t-16.5 -90q0 -191 233 -191 q102 0 183 35v-131q-81 -31 -199 -31q-172 0 -272.5 79t-100.5 233z" />
<glyph unicode="&#xe26;" horiz-adv-x="1341" d="M37 -8v129q53 -17 98 -17q115 0 115 150v809q262 82 481 82q231 0 345 -111t114 -342v-1149h-156v1139q0 180 -70.5 256t-242.5 76q-153 0 -315 -45v-719q0 -273 -238 -273q-73 0 -131 15z" />
<glyph unicode="&#xe27;" horiz-adv-x="1120" d="M78 907v140q176 98 383 98q266 0 409.5 -156.5t143.5 -429.5q0 -275 -146 -429.5t-403 -154.5q-199 0 -356 88v142q173 -99 344 -99q193 0 299 120t106 333q0 217 -102.5 336t-302.5 119q-187 0 -375 -107z" />
<glyph unicode="&#xe28;" horiz-adv-x="1351" d="M152 0v649q0 244 140.5 370t383.5 126q147 0 268 -53l125 125h193l-213 -197q151 -127 151 -371v-649h-153v643q0 193 -91.5 282t-279.5 89q-187 0 -279 -89.5t-92 -281.5v-217q46 81 137 136.5t201 55.5q63 0 119 -18v-145q-59 24 -125 24q-112 0 -190.5 -45.5 t-141.5 -136.5v-297h-153z" />
<glyph unicode="&#xe29;" horiz-adv-x="1325" d="M152 473v647h155v-641q0 -199 82.5 -286t261.5 -87t261.5 87t82.5 286v117h-313v119h313v405h156v-405h149v-119h-149v-123q0 -498 -500 -498q-499 0 -499 498z" />
<glyph unicode="&#xe2a;" horiz-adv-x="1257" d="M98 289q0 93 37 162.5t104.5 115t175 73t236 39t299.5 11.5v17q0 159 -82.5 234t-253.5 75q-230 0 -450 -105v142q196 92 446 92q145 0 262 -49l119 121h193l-205 -191q127 -114 127 -311v-715h-156v567q-100 0 -175 -2.5t-151 -10t-130 -20t-101.5 -32.5t-76.5 -48.5 t-45.5 -68.5t-16.5 -90q0 -191 233 -191q102 0 183 35v-131q-81 -31 -199 -31q-172 0 -272.5 79t-100.5 233z" />
<glyph unicode="&#xe2b;" horiz-adv-x="1306" d="M156 0v1120h155v-387q89 49 207 85t234 36q7 0 18 -1t18 -1l218 268h178l-242 -301q107 -40 160 -134.5t53 -229.5v-455h-156v438q0 83 -19 141t-55 89t-80 44t-102 13q-217 0 -432 -117v-608h-155z" />
<glyph unicode="&#xe2c;" horiz-adv-x="1394" d="M156 0v1120h151v-661q0 -160 -16 -301h4q81 162 151 270l187 301h123l190 -303q87 -135 154 -268h4q-17 117 -17 301v399q0 104 -38 143t-121 39q-70 0 -148 -20v117q67 26 164 26l184 203h175l-218 -225q154 -55 154 -271v-870h-164l-383 604l-375 -604h-161z" />
<glyph unicode="&#xe2d;" horiz-adv-x="1282" d="M98 377q0 61 12.5 136.5t32.5 123.5h344v-127h-223q-14 -64 -14 -133q0 -143 87.5 -207t266.5 -64q201 0 308.5 106.5t107.5 340.5q0 461 -453 461q-217 0 -432 -99v144q208 86 436 86q292 0 448.5 -157t156.5 -435q0 -148 -42.5 -260t-120.5 -181t-181.5 -103 t-231.5 -34q-225 0 -363.5 105.5t-138.5 296.5z" />
<glyph unicode="&#xe2e;" horiz-adv-x="1286" d="M98 377q0 61 12.5 136.5t32.5 123.5h353v-127h-232q-14 -64 -14 -133q0 -143 87.5 -207t266.5 -64q201 0 308.5 106.5t107.5 340.5q0 226 -113 343.5t-340 117.5q-217 0 -432 -99v144q208 86 436 86q151 0 269 -47l116 119h193l-195 -183q107 -78 164.5 -202t57.5 -279 q0 -148 -42.5 -260t-120.5 -181t-181.5 -103t-231.5 -34q-225 0 -363.5 105.5t-138.5 296.5z" />
<glyph unicode="&#xe2f;" horiz-adv-x="1036" d="M88 985q0 57 25 135h143q-23 -58 -23 -125q0 -65 38.5 -113t117.5 -48q67 0 123 24t96 67t67 89.5t50 105.5h156v-1284h-156v1096q-127 -225 -356 -225q-137 0 -209 69.5t-72 208.5z" />
<glyph unicode="&#xe30;" horiz-adv-x="790" d="M115 336q0 47 22 108h144q-17 -40 -17 -79q0 -50 26 -67t81 -17h297v-129h-314q-239 0 -239 184zM115 940q0 48 22 109h144q-17 -40 -17 -80q0 -50 26 -67t81 -17h297v-129h-314q-239 0 -239 184z" />
<glyph unicode="&#xe31;" d="M-717 1505q0 40 23 111h143q-16 -56 -16 -86q0 -49 26.5 -67.5t83.5 -18.5h596v-127h-612q-244 0 -244 188z" />
<glyph unicode="&#xe32;" horiz-adv-x="1007" d="M45 909v138q175 98 391 98q89 0 162 -22.5t132.5 -69.5t92.5 -128.5t33 -191.5v-733h-156v717q0 161 -69.5 229t-214.5 68q-115 0 -201.5 -28.5t-169.5 -76.5z" />
<glyph unicode="&#xe33;" horiz-adv-x="1007" d="M-489 1485q0 94 65 157.5t174 63.5t174.5 -63.5t65.5 -157.5t-65.5 -157.5t-174.5 -63.5t-174 63.5t-65 157.5zM-371 1485q0 -54 33.5 -85.5t87.5 -31.5t87.5 31.5t33.5 85.5t-33.5 85.5t-87.5 31.5t-87.5 -31.5t-33.5 -85.5zM45 909v138q175 98 391 98q89 0 162 -22.5 t132.5 -69.5t92.5 -128.5t33 -191.5v-733h-156v717q0 161 -69.5 229t-214.5 68q-115 0 -201.5 -28.5t-169.5 -76.5z" />
<glyph unicode="&#xe34;" d="M-1102 1317v127h950v-127h-950z" />
<glyph unicode="&#xe35;" d="M-1102 1317v127h807l-6 225h149v-352h-950z" />
<glyph unicode="&#xe36;" d="M-1102 1317v127h588q-16 43 -16 76q0 79 61 132.5t145 53.5q95 0 153 -56.5t58 -138.5q0 -81 -58 -137.5t-153 -56.5h-778zM-432 1511q0 -49 30 -77.5t78 -28.5t78.5 28.5t30.5 77.5q0 50 -30.5 78.5t-78.5 28.5t-78 -28.5t-30 -78.5z" />
<glyph unicode="&#xe37;" d="M-1102 1317v127h559l-4 225h135v-231h129l-6 231h137v-352h-950z" />
<glyph unicode="&#xe38;" d="M-469 -166q67 19 139 19q178 0 178 -179v-225h-147v197q0 44 -20 65t-66 21q-37 0 -84 -15v117z" />
<glyph unicode="&#xe39;" d="M-870 -164h266v-176q0 -66 35.5 -91.5t119.5 -25.5t120 25.5t36 91.5v176h141v-192q0 -77 -42 -127.5t-106.5 -71t-148.5 -20.5q-131 0 -213.5 53t-82.5 166v90h-125v102z" />
<glyph unicode="&#xe3a;" d="M-350 -260q0 50 35 81.5t86 31.5q48 0 82 -31.5t34 -81.5t-34 -82.5t-82 -32.5q-50 0 -85.5 32.5t-35.5 82.5z" />
<glyph unicode="&#xe3f;" horiz-adv-x="1253" d="M156 0v1249h434v205h112v-205q388 0 388 -313q0 -177 -154 -277v-4q223 -68 223 -313q0 -76 -24 -135.5t-65.5 -98t-100.5 -63.5t-124.5 -35t-142.5 -10v-205h-112v205h-434zM313 127h381q51 0 90.5 4.5t81.5 18t70 37t45.5 64.5t17.5 97q0 59 -17.5 101.5t-43 65 t-67.5 35.5t-77 16t-85 3h-396v-442zM313 696h394q34 0 100 -4q123 98 123 232q0 102 -53 150t-185 48h-379v-426z" />
<glyph unicode="&#xe40;" horiz-adv-x="471" d="M160 0v1120h151v-1120h-151z" />
<glyph unicode="&#xe41;" horiz-adv-x="897" d="M160 0v1120h151v-1120h-151zM586 0v1120h151v-1120h-151z" />
<glyph unicode="&#xe42;" horiz-adv-x="638" d="M-2 1577v127q194 98 428 98q212 0 369 -41v-129q-152 47 -357 47q-176 0 -297 -47q152 -49 233 -169t81 -285v-1178h-152v1186q0 311 -305 391z" />
<glyph unicode="&#xe43;" horiz-adv-x="638" d="M8 1550v140q62 47 151 79.5t191 32.5q177 0 272 -79t95 -207q0 -59 -27 -114.5t-65.5 -100t-77 -87t-65.5 -92t-27 -98.5v-1024h-152v1040q0 51 27.5 102t67 94l79 86t67 92t27.5 97q0 83 -60.5 125.5t-162.5 42.5q-84 0 -178 -36t-162 -93z" />
<glyph unicode="&#xe44;" horiz-adv-x="638" d="M-27 1663v131q72 -45 138.5 -66.5t154.5 -21.5q178 0 324 86h121v-133q-140 -108 -198 -238t-58 -303v-1118h-152v1098q0 176 69.5 321.5t192.5 239.5l-2 4q-157 -82 -311 -82q-77 0 -155.5 23t-123.5 59z" />
<glyph unicode="&#xe45;" horiz-adv-x="1007" d="M45 909v138q175 98 391 98q89 0 162 -22.5t132.5 -69.5t92.5 -128.5t33 -191.5v-1190h-156v1174q0 161 -69.5 229t-214.5 68q-115 0 -201.5 -28.5t-169.5 -76.5z" />
<glyph unicode="&#xe46;" horiz-adv-x="1267" d="M119 780q0 129 77 223t197 142l213 -160l217 160q140 -39 210.5 -127.5t70.5 -259.5v-1194h-154v1173q0 124 -29 184t-100 80l-213 -151l-217 151q-125 -79 -125 -223q0 -114 53 -165.5t154 -51.5q75 0 125 21v-129q-51 -19 -133 -19q-95 0 -163.5 26t-107.5 74.5 t-57 109t-18 136.5z" />
<glyph unicode="&#xe47;" d="M-1006 1561q0 123 77.5 186t219.5 63h484v-114h-477q-170 0 -170 -135q0 -69 37 -103.5t85 -34.5q112 0 132 127h106q8 -51 46 -83.5t106 -32.5h135v-117h-148q-64 0 -116.5 34.5t-75.5 96.5q-31 -69 -78 -104t-119 -35q-113 0 -178.5 67.5t-65.5 184.5z" />
<glyph unicode="&#xe48;" d="M-299 1780v329h147v-329h-147z" />
<glyph unicode="&#xe49;" d="M-532 1780v86q75 14 129.5 52.5t54.5 96.5q0 70 -82 70q-48 0 -96 -19v101q55 22 131 22q83 0 125.5 -38.5t42.5 -108.5q0 -98 -95 -156l357 8v-114h-567z" />
<glyph unicode="&#xe4a;" d="M-694 1780v114q0 93 40.5 149t123.5 56q112 0 147 -108q41 108 150 108q87 0 128.5 -57t30.5 -156l154 4v-110h-281v104q0 50 -11 74t-44 24q-63 0 -78 -92h-96q-15 92 -78 92q-33 0 -44 -24t-11 -74v-104h-131z" />
<glyph unicode="&#xe4b;" d="M-485 1960v115l194 -4l-4 186h131l-4 -186l195 4v-115l-195 4l4 -184h-131l4 184z" />
<glyph unicode="&#xe4c;" d="M-553 1700q0 180 223 180h299v-119h-276q-53 0 -77 -17.5t-24 -64.5q0 -42 17 -82h-139q-23 57 -23 103z" />
<glyph unicode="&#xe4d;" d="M-489 1485q0 94 65 157.5t174 63.5t174.5 -63.5t65.5 -157.5t-65.5 -157.5t-174.5 -63.5t-174 63.5t-65 157.5zM-371 1485q0 -54 33.5 -85.5t87.5 -31.5t87.5 31.5t33.5 85.5t-33.5 85.5t-87.5 31.5t-87.5 -31.5t-33.5 -85.5z" />
<glyph unicode="&#xe4e;" horiz-adv-x="2396" d="M205 0v1137l993 567l993 -567v-1137l-993 -565zM264 37l201 514v4l-201 535v-1053zM313 0l826 -471l-635 960zM313 1122l191 -508l635 981zM535 551l663 -1008l664 1008l-664 1026zM717 547q21 16 33 28.5t14 17.5l2 5q-2 22 -2 47t1 39l1 14q-7 60 0 93q1 6 25 79 q7 19 20 29.5t22 10.5l9 1q32 46 67 50q30 3 73.5 -2.5t59.5 -2.5q9 1 44 8t67 11.5t53 1.5q53 -7 139 -31t123 -53q29 -24 38 -32t36.5 -35.5t39.5 -47.5t25.5 -53.5t16.5 -69.5q5 -54 7.5 -94t2.5 -53v-14q13 -23 13 -50q0 -11 -2.5 -24.5t-5.5 -21.5l-3 -7q-3 3 -6.5 9 t-9.5 30.5t-4 56.5q4 103 -14 146q-19 -92 -27 -121q-9 -32 4 -92q3 -11 -9 -30.5t-16 -29.5q-12 -35 -12 -63q0 -38 12 -68q4 -16 0 -20q-13 18 -24 16q-9 0 -17 -16q-4 16 -18 16q-9 0 -20 -14l-5 12l-14 4q-8 0 -22 -18q-4 9 -2 18q25 114 10 148q-5 10 -29 39 t-41.5 61.5t-19.5 65.5q-10 -6 0 -43q-78 -11 -176 20q2 16 10 39q-23 -19 -37 -70q-5 -22 -33 -77q-4 -9 11.5 -21t31.5 -20q22 -4 31 -11q-12 0 -19 -10v-4q0 -4 9 -18q-16 3 -21 -4l-2 -9q0 -10 6 -16h-14l-10 -4q-3 -14 4 -25q-23 15 -25 17q-18 17 -49.5 37t-40.5 22 q-33 13 -31 66q24 179 27 194q-8 -3 -16 -26l-33 51q13 9 29 35l20 -31l8 6q0 1 4.5 6.5t10 14.5t8.5 16q11 24 14 55q2 14 6 25l6 14q0 1 4.5 10.5t5.5 12.5t4.5 13t4 15.5t2.5 15t0.5 16t-3 15t-6 15.5t-10.5 14q-17 17 -40 22.5t-37 2.5l-15 -4q6 0 17 -1.5t32 -8.5 t31 -19q16 -19 16 -45q0 -12 -3 -24t-8.5 -27t-6.5 -19l-6 -14q-1 -2 -3.5 -11t-4.5 -16q-2 -18 -11 -53q-1 -2 -4.5 -7.5t-7 -10.5t-6.5 -9l-22 37l-7 -10q-16 -32 -32 -43q-36 -16 -43 -23l-3.5 -3.5t-4.5 -4t-4 -5t-4 -8t-3 -11.5q-2 -6 -7 -11.5t-9 -7.5l-4 -2 q0 7 -2 17v28l-33 27l-6 -4q-29 -41 -68 -78q-1 3 -2 7t-2 7q-10 -16 -53 -18zM743 510q39 26 107 104q2 -3 9.5 -8.5t8.5 -7.5q0 -10 2 -16q-63 -72 -127 -72zM782 502h2q38 13 80 55q13 -64 -4 -145q-5 -17 -2 -51t16 -39q18 -4 25 22q1 7 0 12.5t-2.5 8.5t-5 7.5 t-4.5 6.5q-3 8 11.5 18.5t23.5 10.5q16 0 20.5 -29t-2.5 -55q-17 -52 -72 -52q-28 3 -45.5 23.5t-22.5 41t-8 49t-4 30.5q-1 6 -6 86zM901.5 787.5q-1.5 -9.5 0.5 -16.5l1 -7q13 12 19 20q1 4 5.5 10t8.5 10l4 5q-17 8 -31 -8q-6 -4 -7.5 -13.5zM1012 889q37 -10 45 -33 q3 -8 3.5 -21.5t-0.5 -23.5l-1 -10q1 1 2.5 3.5t5 10t5.5 14.5t1 17.5t-6 19.5q-8 15 -21.5 20.5t-23.5 3.5zM1047 207q-4 13 4 45q2 10 1.5 24.5t-2.5 27.5l-1 13q16 -7 33.5 -19.5t32.5 -26t18 -15.5q4 -4 11.5 -4t13.5 2l5 2q0 -8 2 -19t2.5 -16t-2.5 -14q-6 23 -26 18 q-7 0 -15 -16q-4 16 -16 16t-21 -18l-8 12l-12 6q-8 0 -20 -18zM1055 203l4.5 6t4 4.5l3.5 3.5t2 0l4 -4q8 -8 8 -18q-20 4 -26 8zM1092 193q0 8 5 15t11 7q3 0 4.5 -2.5t4 -10t3.5 -9.5h-12h-16zM1128 403q11 19 15 31l14 37l2 -86q-9 3 -16.5 7.5t-10.5 7.5zM1130 193 q1 10 5.5 17t7.5 7q10 3 14 -12q-4 -8 -27 -12zM1147 287l4 2q5 2 20 -6q-11 -11 -18 -13q-8 10 -6 17zM1163 317q8 5 27 -4l-4 -8q-1 -3 -4 -7t-4 -5q-15 11 -15 24zM1180 344q4 4 20 4q2 -7 -4 -26q-16 13 -16 22zM1257 -471l828 471l-193 489zM1257 1595l635 -981 l191 508zM1442 203q3 8 6 11.5t6 2.5l6 -2q7 -7 10 -20q-6 2 -16 4.5t-12 3.5zM1481 193q4 22 14 22t14 -22h-12h-16zM1518 193q7 24 14 24q7 2 14 -12q-10 -10 -28 -12zM1556 307q7 35 11 47q2 6 10 16t10 19q4 -16 -4 -41q-14 -35 -14 -90q0 -2 1 -6.5t1.5 -6.5t1 -6t1 -6 t0.5 -5t-0.5 -5t-1.5 -4t-3 -3.5t-4 -2.5q4 13 -2 33q-10 23 -7 61zM1931 551l201 -514v1053z" />
<glyph unicode="&#xe4f;" horiz-adv-x="1187" d="M123 508q0 99 38 185.5t102 146.5t150.5 94.5t180.5 34.5t180.5 -34.5t150.5 -94.5t102 -146.5t38 -185.5t-38 -186t-102 -148t-150.5 -96t-180.5 -35t-180.5 35t-150.5 96t-102 148t-38 186zM203 508q0 -164 114.5 -278.5t276.5 -114.5q163 0 277 114.5t114 278.5 q0 160 -114.5 274.5t-276.5 114.5q-161 0 -276 -114.5t-115 -274.5zM319 508q0 111 80 191.5t195 80.5q114 0 194 -80.5t80 -191.5q0 -116 -79.5 -196.5t-194.5 -80.5t-195 80.5t-80 196.5zM408 506q0 -78 54 -132.5t132 -54.5t132 54.5t54 132.5t-54 132t-132 54t-132 -54 t-54 -132z" />
<glyph unicode="&#xe50;" horiz-adv-x="1261" d="M86 489q0 222 153.5 368.5t391.5 146.5q240 0 392.5 -146t152.5 -369t-152.5 -368.5t-392.5 -145.5q-238 0 -391.5 146t-153.5 368zM240 489q0 -179 103.5 -284t287.5 -105t288.5 105t104.5 284t-104.5 284.5t-288.5 105.5t-287.5 -105.5t-103.5 -284.5z" />
<glyph unicode="&#xe51;" horiz-adv-x="1257" d="M84 561q0 201 147.5 322t386.5 121q122 0 221 -33.5t173.5 -99.5t115.5 -172t41 -244q0 -178 -78 -310t-211 -199t-302 -67h-64v121h55q204 0 326.5 116t122.5 341q0 208 -108 315t-296 107q-177 0 -280 -86.5t-103 -227.5q0 -132 69.5 -197t195.5 -65q106 0 180 29v-117 q-91 -35 -203 -35q-172 0 -280.5 102t-108.5 279z" />
<glyph unicode="&#xe52;" horiz-adv-x="1429" d="M133 297v911h152v-891q0 -121 117.5 -169t353.5 -48q221 0 401 37v549q0 150 -102 184l-170 -129l-185 129q-50 -18 -84 -71t-34 -127q0 -95 43.5 -144t138.5 -49q36 0 88 10v-114q-57 -13 -109 -13q-144 0 -219 78.5t-75 221.5q0 262 258 337l178 -133l172 135 q127 -28 186.5 -109.5t59.5 -197.5v-645q-140 -39 -266 -56.5t-285 -17.5q-315 0 -467 74.5t-152 247.5z" />
<glyph unicode="&#xe53;" horiz-adv-x="1331" d="M123 291v381q0 169 79.5 250.5t205.5 81.5q96 0 163.5 -48.5t92.5 -128.5q30 81 97.5 129t164.5 48q123 0 200.5 -81.5t77.5 -250.5v-672h-149v639q0 132 -39 186t-127 54q-76 0 -117 -59.5t-41 -160.5v-231h-131v213q0 111 -39 174.5t-121 63.5q-83 0 -124.5 -49.5 t-41.5 -167.5v-363q0 -105 46.5 -153t136.5 -48q80 0 157 25v-115q-91 -31 -180 -31q-150 0 -230.5 78.5t-80.5 235.5z" />
<glyph unicode="&#xe54;" horiz-adv-x="1189" d="M86 489q0 233 136 365.5t399 132.5h155q58 0 92 2.5t66.5 10t48.5 23.5t25.5 43t9.5 67v75h123q11 -47 14 -102q0 -36 -6 -74q-17 -92 -100 -132t-256 -40h-150q-405 0 -405 -375q0 -113 51.5 -208t144.5 -152h43q95 0 174 63q-35 56 -35 138q0 124 78 186.5t209 62.5 q49 0 101 -10v-106h-68q-83 0 -129.5 -38.5t-46.5 -109.5q0 -99 61.5 -145.5t196.5 -46.5h104v-119h-110q-211 0 -307 104q-44 -44 -108.5 -74t-129.5 -30h-96q-119 69 -202 194.5t-83 294.5z" />
<glyph unicode="&#xe55;" horiz-adv-x="1202" d="M86 489q0 200 100.5 327.5t296.5 156.5q-22 42 -22 90q0 86 60.5 141.5t154.5 55.5t153.5 -52.5t59.5 -144.5q0 -42 -19 -74q88 2 123 31t35 113v75h125q12 -66 12 -118q0 -57 -19.5 -99.5t-51 -67t-79 -39t-94.5 -19.5t-106 -5h-188q-197 0 -293 -97t-96 -278 q0 -113 51.5 -208t144.5 -152h55q96 0 175 63q-35 56 -35 138q0 124 77.5 186.5t208.5 62.5q49 0 101 -10v-106h-70q-81 0 -127.5 -38.5t-46.5 -109.5q0 -100 60 -146t198 -46h105v-119h-111q-208 0 -309 104q-45 -45 -108 -74.5t-128 -29.5h-108q-119 69 -202 194.5 t-83 294.5zM575 1063q0 -46 28.5 -72t72.5 -26t71 26t27 72t-27 72t-71 26t-72.5 -26t-28.5 -72z" />
<glyph unicode="&#xe56;" horiz-adv-x="1247" d="M23 1208h159l99 -356q64 69 169 110.5t230 41.5q206 0 343.5 -142.5t137.5 -365.5q0 -249 -147 -385t-398 -136q-220 0 -355.5 95.5t-135.5 265.5q0 78 18 137h156q-20 -56 -20 -129q0 -107 88.5 -175.5t250.5 -68.5q182 0 286 102t104 294q0 170 -93.5 276.5 t-257.5 106.5q-236 0 -356 -160h-125q-6 34 -14 70.5t-14.5 64t-19.5 67t-19 59t-22 63t-20.5 54.5t-23 58.5t-20.5 52.5z" />
<glyph unicode="&#xe57;" horiz-adv-x="1581" d="M123 291v411q0 149 70 225.5t184 76.5q76 0 132.5 -39.5t80.5 -102.5q25 63 84 102.5t135 39.5q110 0 177 -75.5t67 -226.5v-593q50 -13 92 -13q90 0 122.5 43.5t32.5 141.5v968h148v-956q0 -89 -22 -152t-62.5 -98t-91 -50.5t-115.5 -15.5q-145 0 -250 43v672 q0 98 -30.5 142.5t-94.5 44.5q-129 0 -129 -172v-125h-125v125q0 85 -33.5 128.5t-95.5 43.5q-64 0 -94.5 -44.5t-30.5 -142.5v-393q0 -106 45 -153.5t134 -47.5q86 0 153 23v-113q-81 -31 -176 -31q-150 0 -228.5 78t-78.5 236z" />
<glyph unicode="&#xe58;" horiz-adv-x="1329" d="M86 489q0 233 136 365.5t399 132.5h249q103 0 143 30t40 116v75h123q14 -55 14 -116q0 -232 -303 -232h-260q-197 0 -293 -97t-96 -278q0 -114 49.5 -209t140.5 -151h23q78 0 129.5 65t62.5 170h123q8 -113 58.5 -183.5t148.5 -70.5q141 0 141 199q0 108 -36.5 154.5 t-116.5 46.5q-32 0 -74 -10v114q33 8 90 8q138 0 203 -78t65 -239q0 -148 -63 -232.5t-199 -84.5q-115 0 -186 59.5t-90 165.5q-30 -102 -100 -155.5t-165 -53.5h-77q-74 45 -134 108.5t-102.5 164.5t-42.5 216z" />
<glyph unicode="&#xe59;" horiz-adv-x="1294" d="M123 307v379q0 161 75.5 239.5t194.5 78.5q84 0 142 -30.5t104 -92.5q80 123 209 123q95 0 137.5 -59.5t42.5 -153.5v-74q54 0 74 23.5t20 90.5v336h129v-327q0 -121 -55 -174.5t-174 -53.5h-102v144q0 131 -86 131q-89 0 -140 -96l391 -791h-143l-362 727 q-37 75 -73 110t-97 35q-66 0 -101 -44.5t-35 -149.5v-365q0 -114 46.5 -164.5t136.5 -50.5q75 0 145 25v-115q-83 -31 -170 -31q-309 0 -309 330z" />
<glyph unicode="&#xe5b;" horiz-adv-x="2426" d="M119 590q0 125 36.5 221.5t99.5 153.5t140 85.5t164 28.5q158 0 260.5 -87t102.5 -251q0 -78 -29 -138.5t-78.5 -97t-111 -55t-130.5 -18.5v121q84 0 144.5 46.5t60.5 141.5q0 104 -54.5 158.5t-162.5 54.5q-135 0 -215 -88t-80 -276q0 -204 103 -304t276 -100 q118 0 215.5 51t159.5 137t95.5 196.5t33.5 232.5q0 67 -8 119h137l209 -521l82 445h119l174 -420l69 362h115q0 -76 38.5 -147.5t109.5 -119t155 -50.5v-111q-67 0 -133.5 25.5t-125 83t-81.5 137.5l-67 -354h-119l-176 412l-88 -463h-115l-187 467q-7 -80 -32.5 -161 t-75.5 -162.5t-117.5 -144.5t-168 -102t-218.5 -39q-107 0 -200.5 32.5t-167 95.5t-116 166.5t-42.5 236.5z" />
<glyph unicode="&#x2000;" horiz-adv-x="1128" />
<glyph unicode="&#x2001;" horiz-adv-x="2257" />
<glyph unicode="&#x2002;" horiz-adv-x="1128" />
<glyph unicode="&#x2003;" horiz-adv-x="2257" />
<glyph unicode="&#x2004;" horiz-adv-x="752" />
<glyph unicode="&#x2005;" horiz-adv-x="564" />
<glyph unicode="&#x2006;" horiz-adv-x="376" />
<glyph unicode="&#x2007;" horiz-adv-x="376" />
<glyph unicode="&#x2008;" horiz-adv-x="282" />
<glyph unicode="&#x2009;" horiz-adv-x="451" />
<glyph unicode="&#x200a;" horiz-adv-x="125" />
<glyph unicode="&#x2010;" horiz-adv-x="667" d="M72 557v133h524v-133h-524z" />
<glyph unicode="&#x2011;" horiz-adv-x="667" d="M72 557v133h524v-133h-524z" />
<glyph unicode="&#x2012;" horiz-adv-x="667" d="M72 557v133h524v-133h-524z" />
<glyph unicode="&#x2013;" horiz-adv-x="968" d="M72 561v125h825v-125h-825z" />
<glyph unicode="&#x2014;" horiz-adv-x="1609" d="M72 561v125h1466v-125h-1466z" />
<glyph unicode="&#x2018;" horiz-adv-x="462" d="M119 1008q0 103 51.5 191.5t116.5 146.5l67 -25q-39 -39 -72.5 -107t-33.5 -124q42 2 73 -28.5t31 -76.5q0 -47 -31 -76.5t-81 -29.5q-60 0 -90.5 37t-30.5 92z" />
<glyph unicode="&#x2019;" horiz-adv-x="462" d="M109 905q39 39 72.5 107.5t33.5 124.5q-42 -5 -73 26t-31 78t31 76t81 29q60 0 90.5 -36t30.5 -91q0 -102 -51.5 -191t-116.5 -149z" />
<glyph unicode="&#x201a;" horiz-adv-x="462" d="M109 -233q39 39 72.5 107t33.5 124q-42 -5 -73 26t-31 78t31.5 77t80.5 30q60 0 90.5 -37t30.5 -92q0 -102 -51.5 -191t-116.5 -149z" />
<glyph unicode="&#x201c;" horiz-adv-x="784" d="M119 1008q0 103 51.5 191.5t116.5 146.5l67 -25q-39 -39 -72.5 -107t-33.5 -124q42 2 73 -28.5t31 -76.5q0 -47 -31 -76.5t-81 -29.5q-60 0 -90.5 37t-30.5 92zM440 1008q0 103 51.5 191.5t116.5 146.5l68 -25q-39 -39 -73 -107t-34 -124q42 2 73.5 -28.5t31.5 -76.5 q0 -47 -31 -76.5t-82 -29.5q-60 0 -90.5 37t-30.5 92z" />
<glyph unicode="&#x201d;" horiz-adv-x="784" d="M109 905q39 39 72.5 107.5t33.5 124.5q-42 -5 -73 26t-31 78t30.5 76t81.5 29q60 0 90.5 -36t30.5 -91q0 -102 -53 -192t-117 -148zM430 905q39 39 73 107.5t34 124.5q-42 -5 -73.5 26t-31.5 78t31 76t82 29q60 0 90.5 -36t30.5 -91q0 -102 -51.5 -191t-116.5 -149z" />
<glyph unicode="&#x201e;" horiz-adv-x="774" d="M109 -233q39 39 72.5 107t33.5 124q-42 -5 -73 26t-31 78t31.5 77t80.5 30q60 0 90.5 -37t30.5 -92q0 -102 -51.5 -191t-116.5 -149zM430 -233q41 46 74 110.5t33 120.5q-42 -5 -73.5 26t-31.5 78t31 77t82 30q60 0 90.5 -37t30.5 -92q0 -102 -53 -192t-117 -148z" />
<glyph unicode="&#x2020;" horiz-adv-x="1003" d="M78 782v123h358v426h131v-426h359v-123h-359v-1314h-131v1314h-358z" />
<glyph unicode="&#x2021;" horiz-adv-x="1003" d="M78 16h358v766h-358v123h358v426h131v-426h359v-123h-359v-766h359v-125h-359v-423h-131v423h-358v125z" />
<glyph unicode="&#x2022;" horiz-adv-x="737" d="M123 645q0 97 69.5 170.5t176.5 73.5t176 -73t69 -171t-69 -171t-176 -73t-176.5 73.5t-69.5 170.5z" />
<glyph unicode="&#x2026;" horiz-adv-x="1388" d="M113 98q0 51 34 84t84 33t84.5 -34t34.5 -83q0 -50 -34.5 -82t-84.5 -32t-84 32.5t-34 81.5zM575 98q0 50 34.5 83.5t84.5 33.5t84.5 -34t34.5 -83q0 -50 -34.5 -82t-84.5 -32t-84.5 32.5t-34.5 81.5zM1038 98q0 50 34.5 83.5t84.5 33.5t84.5 -34t34.5 -83 q0 -50 -34.5 -82t-84.5 -32t-84.5 32.5t-34.5 81.5z" />
<glyph unicode="&#x202f;" horiz-adv-x="451" />
<glyph unicode="&#x2030;" horiz-adv-x="2103" d="M96 973q0 133 75 216t208 83t208 -83t75 -216t-75 -216t-208 -83t-208 83t-75 216zM188 0l918 1249h123l-916 -1249h-125zM201 973q0 -99 46.5 -155t131.5 -56t131.5 56t46.5 155t-46.5 155t-131.5 56t-131.5 -56t-46.5 -155zM756 276q0 133 74.5 216t207.5 83t208 -83 t75 -216t-75 -216t-208 -83t-207.5 83t-74.5 216zM860 276q0 -99 46 -154.5t132 -55.5t132.5 55.5t46.5 154.5t-46.5 155t-132.5 56q-85 0 -131.5 -56t-46.5 -155zM1458 276q0 133 75 216t208 83t207.5 -83t74.5 -216t-74.5 -216t-207.5 -83t-208 83t-75 216zM1563 276 q0 -99 46 -154.5t132 -55.5t132 55.5t46 154.5t-46.5 155t-131.5 56t-131.5 -56t-46.5 -155z" />
<glyph unicode="&#x2039;" horiz-adv-x="573" d="M51 555l283 434h151l-286 -432l286 -430h-151z" />
<glyph unicode="&#x203a;" horiz-adv-x="573" d="M88 127l287 430l-287 432h150l284 -434l-284 -428h-150z" />
<glyph unicode="&#x2044;" horiz-adv-x="507" d="M-274 0l936 1249h120l-932 -1249h-124z" />
<glyph unicode="&#x205f;" horiz-adv-x="564" />
<glyph unicode="&#x20ac;" horiz-adv-x="1253" d="M123 440v101h162q-6 75 -6 82q0 14 1 29t2.5 34t2.5 29h-162v100h178q49 214 195 335.5t346 121.5q192 0 321 -117l-26 -137q-61 61 -125.5 92t-155.5 31q-149 0 -251.5 -83.5t-143.5 -242.5h485l-20 -100h-484q-6 -43 -6 -92q0 -32 4 -82h461l-20 -101h-422 q40 -167 146 -252.5t257 -85.5q93 0 160.5 35t128.5 99l29 -144q-133 -123 -332 -123q-210 0 -357 124.5t-194 346.5h-174z" />
<glyph unicode="&#x2122;" horiz-adv-x="1568" d="M61 1145v104h551v-104l-215 2v-574h-121v574zM653 573l86 676h125l203 -526l201 526h127l84 -676h-117l-45 349l-6 153l-191 -502h-108l-191 502l-6 -153l-43 -349h-119z" />
<glyph unicode="&#x2126;" horiz-adv-x="1396" d="M94 713q0 118 35.5 217.5t106 177.5t189 122t273.5 44t273.5 -44t189.5 -122t106.5 -177.5t35.5 -217.5q0 -181 -100 -342t-245 -250h306v-121h-467v115q346 279 346 590q0 70 -13 131.5t-45 119t-81.5 98t-127.5 65t-178 24.5t-178 -24.5t-127.5 -65t-81 -98t-44.5 -119 t-13 -131.5q0 -167 96 -319t250 -271v-115h-467v121h305q-144 89 -244 250t-100 342z" />
<glyph unicode="&#x212e;" horiz-adv-x="1753" d="M82 715q0 201 105 370t288.5 267t405.5 98q166 0 314.5 -58t254 -156.5t167.5 -234t62 -286.5v-29h-1286q-10 0 -10 -8v-379q0 -37 16 -59q174 -197 492 -197q321 0 516 223h119q-113 -132 -278.5 -208t-358.5 -76q-134 0 -257.5 37t-222.5 105t-173 158.5t-114 202 t-40 230.5zM383 748q0 -13 10 -13h975q10 0 10 13v380q0 49 -22 74q-190 187 -473 187q-289 0 -482 -199q-18 -18 -18 -60v-382z" />
<glyph unicode="&#x2202;" horiz-adv-x="1163" d="M88 428q0 87 27.5 163t80 136t139 94.5t195.5 34.5q115 0 214.5 -42.5t160.5 -96.5q-5 141 -76 260.5t-188 190t-252 73.5v121q139 0 263 -57t213 -156.5t140.5 -240t51.5 -300.5q0 -307 -135.5 -470t-364.5 -163q-208 0 -338.5 125.5t-130.5 327.5zM244 414 q0 -148 91 -234t220 -86q92 0 161 43.5t107.5 117.5t58 154.5t23.5 172.5q-67 74 -158 114.5t-194 40.5q-79 0 -140 -26t-97 -71.5t-54 -102t-18 -123.5z" />
<glyph unicode="&#x2206;" horiz-adv-x="1253" d="M102 0v106l439 1225h172l438 -1225v-106h-1049zM268 133h717l-358 1034z" />
<glyph unicode="&#x220f;" horiz-adv-x="1323" d="M172 -440v1771h979v-1771h-152v1642h-675v-1642h-152z" />
<glyph unicode="&#x2211;" horiz-adv-x="1110" d="M82 -336l514 772l-492 778v117h881v-141h-684l457 -705v-82l-469 -700h729v-143h-936v104z" />
<glyph unicode="&#x2212;" horiz-adv-x="1069" d="M98 571v125h873v-125h-873z" />
<glyph unicode="&#x2219;" horiz-adv-x="471" d="M115 596q0 51 33.5 84t87.5 33t87 -33t33 -84q0 -52 -33.5 -85.5t-86.5 -33.5q-54 0 -87.5 33.5t-33.5 85.5z" />
<glyph unicode="&#x221a;" horiz-adv-x="1005" d="M49 555v123h262l221 -670l281 1323h123l-311 -1462h-164l-242 686h-170z" />
<glyph unicode="&#x221e;" horiz-adv-x="1427" d="M51 522q0 83 27.5 150t73.5 108.5t103 63.5t120 22q110 0 197.5 -65t144.5 -187q41 100 129.5 176t193.5 76q151 0 243.5 -91t92.5 -245q0 -110 -47.5 -190t-119 -117t-156.5 -37q-110 0 -198.5 65t-145.5 187q-40 -100 -129.5 -176t-192.5 -76q-151 0 -243.5 91 t-92.5 245zM172 520q0 -39 12.5 -78t37.5 -75t69 -58t100 -22q94 0 169.5 72.5t115.5 177.5q-35 90 -113 157.5t-170 67.5q-61 0 -106.5 -23.5t-69 -61.5t-34.5 -77.5t-11 -79.5zM754 535q36 -99 111.5 -171.5t170.5 -72.5q60 0 105 23.5t68.5 61t34.5 77t11 79.5t-13 79.5 t-38 75t-69.5 57.5t-100.5 22q-89 0 -164 -68t-116 -163z" />
<glyph unicode="&#x222b;" horiz-adv-x="763" d="M82 -334q93 -6 100 -6q70 0 95.5 34t25.5 118v1251q0 45 6 85t22 79t40.5 67t64.5 45t92 17q90 0 154 -21v-110q-93 6 -100 6q-70 0 -95.5 -34t-25.5 -118v-1251q0 -45 -6 -85t-22 -79t-40.5 -67t-64.5 -45t-92 -17q-90 0 -154 21v110z" />
<glyph unicode="&#x2248;" horiz-adv-x="1069" d="M137 342v135q33 26 57 42t66.5 32t85.5 16q49 0 103 -19t93.5 -41.5t89.5 -41.5t91 -19q100 0 209 109v-135q-109 -92 -211 -92q-48 0 -101.5 19t-93 41.5t-89.5 41.5t-91 19q-56 0 -103 -25.5t-106 -81.5zM137 694v135q33 26 57 42t66.5 32.5t85.5 16.5q49 0 103 -19 t93.5 -41.5t89.5 -41.5t91 -19q101 0 209 108v-135q-109 -92 -211 -92q-48 0 -101.5 19t-93 41.5t-89.5 41.5t-91 19q-56 0 -103 -25.5t-106 -81.5z" />
<glyph unicode="&#x2260;" horiz-adv-x="1069" d="M106 391v121h318l119 227h-437v119h496l184 359h121l-184 -359h240v-119h-301l-117 -227h418v-121h-480l-200 -391h-119l198 391h-256z" />
<glyph unicode="&#x2264;" horiz-adv-x="1069" d="M61 0v106h885v-106h-885zM61 623v114l885 434v-127l-753 -364l753 -365v-127z" />
<glyph unicode="&#x2265;" horiz-adv-x="1069" d="M123 0v106h885v-106h-885zM123 188v127l751 365l-751 364v127l885 -434v-114z" />
<glyph unicode="&#x25ca;" horiz-adv-x="1146" d="M86 666l432 665h111l432 -665l-430 -666h-113zM240 666l333 -512l334 512l-334 514z" />
<glyph unicode="&#x25fc;" horiz-adv-x="921" d="M0 0v922h922v-922h-922z" />
<glyph unicode="&#xf700;" horiz-adv-x="1191" d="M78 913v138q200 94 438 94q146 0 279 -58l127 130h192l-213 -197q184 -156 184 -424q0 -130 -48 -239t-127.5 -181t-174 -116.5t-196.5 -59.5h-129l-189 414q-47 95 -90 168h178l201 -459q79 9 152.5 44t134 92.5t97 145t36.5 191.5q0 202 -105.5 310t-320.5 108 t-426 -101z" />
<glyph unicode="&#xf701;" d="M-1278 1317v127h852v-127h-852z" />
<glyph unicode="&#xf702;" d="M-1278 1317v127h709l-6 225h149v-352h-852z" />
<glyph unicode="&#xf703;" d="M-1278 1317v127h490q-17 46 -17 76q0 79 60.5 132.5t146.5 53.5q95 0 153 -56.5t58 -138.5q0 -81 -58 -137.5t-153 -56.5h-680zM-707 1511q0 -49 30.5 -77.5t78.5 -28.5t78.5 28.5t30.5 77.5q0 50 -30.5 78.5t-78.5 28.5t-78.5 -28.5t-30.5 -78.5z" />
<glyph unicode="&#xf704;" d="M-1278 1317v127h461l-4 225h135v-231h129l-6 231h137v-352h-852z" />
<glyph unicode="&#xf705;" d="M-756 1317v414h150v-414h-150z" />
<glyph unicode="&#xf706;" d="M-1081 1317v96q85 21 144.5 61.5t59.5 104.5q0 35 -22.5 54.5t-65.5 19.5q-53 0 -110 -21v109q86 22 143 22q191 0 191 -155q0 -106 -111 -172l387 6v-125h-616z" />
<glyph unicode="&#xf707;" d="M-1227 1317v129q0 103 47 165t140 62q122 0 163 -117q47 117 168 117q97 0 146 -65.5t37 -175.5l166 6v-121h-308v119q0 56 -13.5 84t-51.5 28q-70 0 -86 -104h-111q-16 104 -86 104q-38 0 -52.5 -28.5t-14.5 -83.5v-119h-144z" />
<glyph unicode="&#xf708;" d="M-1042 1518v122l219 -4l-4 205h145l-4 -205l219 4v-122l-219 6l4 -207h-145l4 207z" />
<glyph unicode="&#xf709;" d="M-969 1413q0 197 244 197h299v-129h-274q-58 0 -84.5 -19.5t-26.5 -70.5q0 -43 18 -88h-151q-25 61 -25 110z" />
<glyph unicode="&#xf70a;" d="M-301 1317v414h149v-414h-149z" />
<glyph unicode="&#xf70b;" d="M-631 1317v96q38 10 71 23t64.5 33t49.5 48t18 62q0 74 -86 74q-54 0 -111 -21v109q86 22 144 22q190 0 190 -155q0 -107 -110 -172l381 6v-125h-611z" />
<glyph unicode="&#xf70c;" d="M-934 1317v129q0 103 46.5 165t139.5 62q124 0 164 -117q46 117 168 117q97 0 146 -65.5t37 -175.5l172 6v-121h-314v119q0 56 -13.5 84t-51.5 28q-70 0 -86 -104h-111q-16 104 -86 104q-39 0 -53.5 -28.5t-14.5 -83.5v-119h-143z" />
<glyph unicode="&#xf70d;" d="M-696 1518v122l219 -4l-4 205h145l-4 -205l219 4v-122l-219 6l4 -207h-145l4 207z" />
<glyph unicode="&#xf70e;" d="M-600 1413q0 197 246 197h303v-129h-279q-57 0 -83.5 -19t-26.5 -71q0 -43 18 -88h-151q-27 59 -27 110z" />
<glyph unicode="&#xf70f;" horiz-adv-x="2009" d="M156 272v791q262 82 483 82q226 0 341.5 -112.5t115.5 -346.5v-301q0 -279 303 -279q305 0 305 279v735h154v-741q0 -199 -119.5 -301.5t-339.5 -102.5q-219 0 -339 103t-120 301v297q0 182 -72.5 260t-240.5 78q-166 0 -316 -45v-682q0 -107 37.5 -145t120.5 -38 q76 0 145 27v-127q-76 -27 -170 -27q-288 0 -288 295z" />
<glyph unicode="&#xf710;" d="M-1110 1505q0 40 23 111h143q-17 -59 -17 -86q0 -49 27 -67.5t84 -18.5h465v-127h-481q-244 0 -244 188z" />
<glyph unicode="&#xf711;" d="M-934 1485q0 94 65.5 157.5t174.5 63.5t174 -63.5t65 -157.5t-65 -157.5t-174 -63.5t-174.5 63.5t-65.5 157.5zM-815 1485q0 -54 33.5 -85.5t87.5 -31.5t87.5 31.5t33.5 85.5t-33.5 85.5t-87.5 31.5t-87.5 -31.5t-33.5 -85.5z" />
<glyph unicode="&#xf712;" d="M-1231 1561q0 123 77.5 186t219.5 63h483v-114h-477q-170 0 -170 -135q0 -69 37.5 -103.5t85.5 -34.5q111 0 131 127h107q8 -51 45.5 -83.5t105.5 -32.5h135v-117h-147q-65 0 -117.5 34.5t-75.5 96.5q-31 -69 -77.5 -104t-118.5 -35q-113 0 -178.5 67.5t-65.5 184.5z" />
<glyph unicode="&#xf713;" d="M-573 1780v329h147v-329h-147z" />
<glyph unicode="&#xf714;" d="M-860 1780v86q75 14 129.5 52.5t54.5 96.5q0 70 -82 70q-48 0 -96 -19v101q55 22 131 22q83 0 125.5 -38.5t42.5 -108.5q0 -99 -94 -156l356 8v-114h-567z" />
<glyph unicode="&#xf715;" d="M-1106 1780v114q0 93 40.5 149t123.5 56q112 0 147 -108q41 108 150 108q87 0 129 -57t31 -156l153 4v-110h-280v104q0 49 -11.5 73.5t-44.5 24.5q-62 0 -77 -92h-97q-15 92 -78 92q-33 0 -44 -24t-11 -74v-104h-131z" />
<glyph unicode="&#xf716;" d="M-760 1960v115l195 -4l-4 186h131l-4 -186l194 4v-115l-194 4l4 -184h-131l4 184z" />
<glyph unicode="&#xf717;" d="M-827 1700q0 180 223 180h299v-119h-277q-53 0 -76.5 -17.5t-23.5 -64.5q0 -44 16 -82h-139q-22 55 -22 103z" />
<glyph unicode="&#xf718;" d="M-469 -555q63 18 139 18q178 0 178 -178v-225h-147v197q0 44 -20 65t-66 21q-37 0 -84 -15v117z" />
<glyph unicode="&#xf719;" d="M-870 -553h266v-176q0 -66 35.5 -91.5t119.5 -25.5t120 25.5t36 91.5v176h141v-192q0 -77 -42 -127.5t-106.5 -71.5t-148.5 -21q-131 0 -213.5 53.5t-82.5 166.5v90h-125v102z" />
<glyph unicode="&#xf71a;" d="M-350 -649q0 50 35 81t86 31q49 0 82.5 -31t33.5 -81t-34 -82.5t-82 -32.5q-50 0 -85.5 32.5t-35.5 82.5z" />
<glyph unicode="&#xf71b;" horiz-adv-x="1341" d="M37 -8v129q53 -17 98 -17q115 0 115 150v809q262 82 481 82q231 0 345 -111t114 -342v-1128h-137l-310 98q-123 45 -196 45q-69 0 -110.5 -35t-41.5 -106h-135q0 130 79.5 198t205.5 68q98 0 233 -47l256 -92v989q0 180 -70.5 256t-242.5 76q-153 0 -315 -45v-719 q0 -273 -238 -273q-73 0 -131 15z" />
<glyph unicode="&#xf71c;" horiz-adv-x="1341" d="M37 -8v129q53 -17 98 -17q115 0 115 150v809q262 82 481 82q231 0 345 -111t114 -342v-1128h-164q-113 0 -192.5 38t-104.5 119q-24 -74 -93.5 -117.5t-172.5 -43.5q-120 0 -205 47v137q96 -66 199 -66q86 0 135.5 42t69.5 130h131q43 -161 204 -161h37v993 q0 180 -70.5 256t-242.5 76q-153 0 -315 -45v-719q0 -273 -238 -273q-73 0 -131 15z" />
<glyph unicode="&#xf71d;" horiz-adv-x="1394" d="M156 0v1120h151v-661q0 -160 -16 -301h4q81 162 151 270l187 301h123l190 -303q87 -135 154 -268h4q-17 117 -17 301v266q0 104 -38 143t-121 39q-70 0 -148 -20v117q67 26 164 26l168 187h174l-201 -209q154 -55 154 -271v-737h-164l-383 604l-375 -604h-161z" />
<glyph unicode="&#xf8ff;" horiz-adv-x="2396" d="M205 0v1137l993 567l993 -567v-1137l-993 -565zM264 37l201 514v4l-201 535v-1053zM313 0l826 -471l-635 960zM313 1122l191 -508l635 981zM535 551l663 -1008l664 1008l-664 1026zM717 547q21 16 33 28.5t14 17.5l2 5q-2 22 -2 47t1 39l1 14q-7 60 0 93q1 6 25 79 q7 19 20 29.5t22 10.5l9 1q32 46 67 50q30 3 73.5 -2.5t59.5 -2.5q9 1 44 8t67 11.5t53 1.5q53 -7 139 -31t123 -53q29 -24 38 -32t36.5 -35.5t39.5 -47.5t25.5 -53.5t16.5 -69.5q5 -54 7.5 -94t2.5 -53v-14q13 -23 13 -50q0 -11 -2.5 -24.5t-5.5 -21.5l-3 -7q-3 3 -6.5 9 t-9.5 30.5t-4 56.5q4 103 -14 146q-19 -92 -27 -121q-9 -32 4 -92q3 -11 -9 -30.5t-16 -29.5q-12 -35 -12 -63q0 -38 12 -68q4 -16 0 -20q-13 18 -24 16q-9 0 -17 -16q-4 16 -18 16q-9 0 -20 -14l-5 12l-14 4q-8 0 -22 -18q-4 9 -2 18q25 114 10 148q-5 10 -29 39 t-41.5 61.5t-19.5 65.5q-10 -6 0 -43q-78 -11 -176 20q2 16 10 39q-23 -19 -37 -70q-5 -22 -33 -77q-4 -9 11.5 -21t31.5 -20q22 -4 31 -11q-12 0 -19 -10v-4q0 -4 9 -18q-16 3 -21 -4l-2 -9q0 -10 6 -16h-14l-10 -4q-3 -14 4 -25q-23 15 -25 17q-18 17 -49.5 37t-40.5 22 q-33 13 -31 66q24 179 27 194q-8 -3 -16 -26l-33 51q13 9 29 35l20 -31l8 6q0 1 4.5 6.5t10 14.5t8.5 16q11 24 14 55q2 14 6 25l6 14q0 1 4.5 10.5t5.5 12.5t4.5 13t4 15.5t2.5 15t0.5 16t-3 15t-6 15.5t-10.5 14q-17 17 -40 22.5t-37 2.5l-15 -4q6 0 17 -1.5t32 -8.5 t31 -19q16 -19 16 -45q0 -12 -3 -24t-8.5 -27t-6.5 -19l-6 -14q-1 -2 -3.5 -11t-4.5 -16q-2 -18 -11 -53q-1 -2 -4.5 -7.5t-7 -10.5t-6.5 -9l-22 37l-7 -10q-16 -32 -32 -43q-36 -16 -43 -23l-3.5 -3.5t-4.5 -4t-4 -5t-4 -8t-3 -11.5q-2 -6 -7 -11.5t-9 -7.5l-4 -2 q0 7 -2 17v28l-33 27l-6 -4q-29 -41 -68 -78q-1 3 -2 7t-2 7q-10 -16 -53 -18zM743 510q39 26 107 104q2 -3 9.5 -8.5t8.5 -7.5q0 -10 2 -16q-63 -72 -127 -72zM782 502h2q38 13 80 55q13 -64 -4 -145q-5 -17 -2 -51t16 -39q18 -4 25 22q1 7 0 12.5t-2.5 8.5t-5 7.5 t-4.5 6.5q-3 8 11.5 18.5t23.5 10.5q16 0 20.5 -29t-2.5 -55q-17 -52 -72 -52q-28 3 -45.5 23.5t-22.5 41t-8 49t-4 30.5q-1 6 -6 86zM901.5 787.5q-1.5 -9.5 0.5 -16.5l1 -7q13 12 19 20q1 4 5.5 10t8.5 10l4 5q-17 8 -31 -8q-6 -4 -7.5 -13.5zM1012 889q37 -10 45 -33 q3 -8 3.5 -21.5t-0.5 -23.5l-1 -10q1 1 2.5 3.5t5 10t5.5 14.5t1 17.5t-6 19.5q-8 15 -21.5 20.5t-23.5 3.5zM1047 207q-4 13 4 45q2 10 1.5 24.5t-2.5 27.5l-1 13q16 -7 33.5 -19.5t32.5 -26t18 -15.5q4 -4 11.5 -4t13.5 2l5 2q0 -8 2 -19t2.5 -16t-2.5 -14q-6 23 -26 18 q-7 0 -15 -16q-4 16 -16 16t-21 -18l-8 12l-12 6q-8 0 -20 -18zM1055 203l4.5 6t4 4.5l3.5 3.5t2 0l4 -4q8 -8 8 -18q-20 4 -26 8zM1092 193q0 8 5 15t11 7q3 0 4.5 -2.5t4 -10t3.5 -9.5h-12h-16zM1128 403q11 19 15 31l14 37l2 -86q-9 3 -16.5 7.5t-10.5 7.5zM1130 193 q1 10 5.5 17t7.5 7q10 3 14 -12q-4 -8 -27 -12zM1147 287l4 2q5 2 20 -6q-11 -11 -18 -13q-8 10 -6 17zM1163 317q8 5 27 -4l-4 -8q-1 -3 -4 -7t-4 -5q-15 11 -15 24zM1180 344q4 4 20 4q2 -7 -4 -26q-16 13 -16 22zM1257 -471l828 471l-193 489zM1257 1595l635 -981 l191 508zM1442 203q3 8 6 11.5t6 2.5l6 -2q7 -7 10 -20q-6 2 -16 4.5t-12 3.5zM1481 193q4 22 14 22t14 -22h-12h-16zM1518 193q7 24 14 24q7 2 14 -12q-10 -10 -28 -12zM1556 307q7 35 11 47q2 6 10 16t10 19q4 -16 -4 -41q-14 -35 -14 -90q0 -2 1 -6.5t1.5 -6.5t1 -6t1 -6 t0.5 -5t-0.5 -5t-1.5 -4t-3 -3.5t-4 -2.5q4 13 -2 33q-10 23 -7 61zM1931 551l201 -514v1053z" />
<glyph />
<glyph horiz-adv-x="540" />
<glyph horiz-adv-x="1050" d="M-934 1485q0 94 65.5 157.5t174.5 63.5t174 -63.5t65 -157.5t-65 -157.5t-174 -63.5t-174.5 63.5t-65.5 157.5zM-815 1485q0 -54 33.5 -85.5t87.5 -31.5t87.5 31.5t33.5 85.5t-33.5 85.5t-87.5 31.5t-87.5 -31.5t-33.5 -85.5zM45 909v138q175 98 391 98q89 0 162 -22.5 t132.5 -69.5t92.5 -128.5t33 -191.5v-733h-156v717q0 161 -69.5 229t-214.5 68q-115 0 -201.5 -28.5t-169.5 -76.5z" />
<glyph />
<glyph horiz-adv-x="1310" d="M115 950v92q105 45 245 74t285 29q260 0 387 -109.5t127 -316.5v-719h-155v698q0 176 -84.5 246t-276.5 70q-75 0 -158 -13q-64 -61 -97 -108t-53 -125.5t-20 -196.5v-571h-155v561q0 140 42 238t134 184z" />
<glyph horiz-adv-x="1302" d="M156 0v1120h155v-428q88 48 209 84.5t236 36.5q7 0 18.5 -1t18.5 -1l188 309h174l-213 -342q107 -40 160 -134.5t53 -229.5v-414h-156v397q0 83 -19 141t-55 89t-80 44t-102 13q-217 0 -432 -117v-567h-155z" />
<glyph horiz-adv-x="1265" d="M119 915v144q208 86 442 86q288 0 443 -157.5t155 -434.5q0 -121 -29.5 -218t-81.5 -163.5t-125 -111.5t-158 -65t-183 -20q-128 0 -251.5 27.5t-207.5 69.5v532h156v-450q108 -48 292 -48q99 0 176 24.5t136 76.5t90 139.5t31 206.5q0 227 -114.5 344t-338.5 117 q-217 0 -432 -99z" />
<glyph horiz-adv-x="1253" d="M109 625q0 311 138 480t380 169t380 -169t138 -480t-138 -480.5t-380 -169.5t-380 169.5t-138 480.5zM264 625q0 -250 90.5 -385.5t272.5 -135.5t272 135.5t90 385.5t-90 385t-272 135t-272.5 -135t-90.5 -385z" />
<glyph horiz-adv-x="1253" d="M301 948v129q221 -8 346 172h137v-1249h-153v1087q-109 -149 -330 -139z" />
<glyph horiz-adv-x="1253" d="M188 0v117q348 219 512 400.5t164 359.5q0 126 -78.5 196t-234.5 70q-171 0 -334 -76v139q141 66 346 66q119 0 209.5 -32t143.5 -88t78.5 -124.5t25.5 -148.5q0 -87 -34 -174t-89 -161.5t-136.5 -150t-165.5 -137t-187 -125.5h632v-131h-852z" />
<glyph horiz-adv-x="1253" d="M199 47v135q178 -76 366 -76q66 0 118 11t97 37t69.5 75.5t24.5 120.5t-32.5 120t-92.5 74t-132.5 34.5t-165.5 7.5v125q389 -11 389 235q0 197 -279 197q-84 0 -178.5 -21t-159.5 -53v133q64 29 159 49.5t200 20.5q118 0 208 -31t146.5 -104.5t56.5 -182.5 q0 -122 -63 -195.5t-170 -105.5v-4q118 -18 194 -97.5t76 -209.5q0 -185 -121.5 -275t-324.5 -90q-238 0 -385 70z" />
<glyph horiz-adv-x="1253" d="M117 260v115l655 874h162v-862h192v-127h-192v-260h-154v260h-663zM287 387h493v670z" />
<glyph horiz-adv-x="1253" d="M193 37v135q72 -27 168 -46.5t178 -19.5q192 0 279 65t87 212q0 136 -92.5 198t-275.5 62q-157 0 -316 -31l27 637h741v-131h-604l-16 -364q125 16 215 16q233 0 355 -103.5t122 -281.5q0 -201 -130.5 -304.5t-381.5 -103.5q-95 0 -192.5 17t-163.5 43z" />
<glyph horiz-adv-x="1253" d="M164 608q0 161 41 288.5t115 209t172.5 124t216.5 42.5q128 0 258 -55v-130q-122 58 -244 58q-190 0 -298 -132t-112 -378q59 76 160.5 125t220.5 49q109 0 191.5 -32.5t130 -89.5t71 -127.5t23.5 -153.5q0 -200 -122 -314.5t-322 -114.5q-232 0 -367 158t-135 473z M313 492q12 -176 103.5 -282t247.5 -106q60 0 111.5 16t94.5 49.5t68 93t25 138.5q0 58 -14.5 106.5t-46 90.5t-89 66t-137.5 24q-111 0 -206 -52t-157 -144z" />
<glyph horiz-adv-x="1253" d="M176 1118v131h846v-112l-492 -1137h-159l483 1118h-678z" />
<glyph horiz-adv-x="1253" d="M166 301q0 258 332 328v4q-82 18 -142.5 50.5t-94.5 75.5t-50 91t-16 102q0 143 114.5 231.5t308.5 88.5q206 0 319.5 -84.5t113.5 -233.5q0 -113 -76 -192t-207 -125v-4q155 -29 237 -109t82 -202q0 -163 -121 -255t-345 -92q-206 0 -330.5 86.5t-124.5 239.5zM313 315 q0 -112 82.5 -166.5t229.5 -54.5q44 0 86.5 7t84.5 24t73.5 42.5t51 66t19.5 90.5q0 56 -24 98t-71 70t-103.5 46t-135.5 31q-132 -31 -212.5 -96t-80.5 -158zM342 952q0 -113 77.5 -171.5t237.5 -84.5q55 22 92.5 41.5t76 50t58 72t19.5 94.5q0 90 -74.5 145.5t-210.5 55.5 q-128 0 -202 -56.5t-74 -146.5z" />
<glyph horiz-adv-x="1253" d="M143 842q0 198 123 314t322 116q113 0 204 -38.5t158 -114.5t103.5 -197.5t36.5 -280.5q0 -163 -41 -290.5t-115 -208.5t-173 -123t-218 -42q-134 0 -256 56v129q110 -60 243 -60q190 0 297 132.5t111 377.5q-60 -74 -160.5 -123t-218.5 -49q-109 0 -191.5 32.5 t-130 89.5t-71 127t-23.5 153zM291 848q0 -60 14.5 -109t46 -90.5t89 -64.5t137.5 -23q111 0 204.5 51.5t157.5 145.5q-12 174 -103.5 280.5t-246.5 106.5q-60 0 -111.5 -16.5t-94.5 -50t-68 -93t-25 -137.5z" />
</font>
</defs>
</svg>
